TORRENTS43.COM

Скачать КВН-2016. Высшая лига. 1.8 финала. Игра 3 (2016.03.27) DVB [H.264]


КВН-2016. Высшая лига. 1.8 финала. Игра 3 (2016.03.27) DVB [H.264]
Телекомпания: Первый канал
Жанр: Юмор
Ведущий: Александр Масляков.
Жюри: Валдис Пельш, Дмитрий Нагиев, Константин Эрнст, Пелагея, Михаил Галустян, Юлий Гусман

Описание:
Что такое КВН, знают, без сомнения, все. В КВН играют во всем мире, это прежде всего молодежная игра. Постоянные конкурсные задания: "Визитная карточка", "Разминка", "Конкурс капитанов", "Музыкальный конкурс", "Домашнее задание". Игру команд оценивает профессиональное жюри — люди, у которых с чувством юмора все в порядке, многие из них раньше сами играли в КВН. Среди членов жюри были Константин Эрнст, Леонид Парфенов, Юлий Гусман, Леонид Ярмольник, Валдис Пельш, Сергей Шолохов, Геннадий Хазанов и другие. Кроме самих игр проводятся ежегодные встречи: фестиваль команд КВН (с 1990 г., семь раз фестиваль проходил в г.Сочи), музыкальный фестиваль КВН, летний кубок КВН, международные товарищеские игры в КВН. Сборная КВН играет со сборными других стран. Уже состоялись игры между сборной КВН и сборными Америки, Австралии, Израиля... Игра в КВН для многих становится профессией, а многие благодаря игре связывают жизнь с искусством. Из КВН "вышли": Леонид Якубович, Михаил Марфин, Татьяна Лазарева, Олег Филимонов, Юлий Гусман и многие другие.

Релиз от: ramzesII
Продолжительность: 01:48:37
Качество видео: DVB

Видео: AVC, 720x576 (16:9), 2708 Kbps
Аудио: MP2, 48.0 KHz, 2 ch, 192 Kbps, CBR

Mediainfo:

Код:
Общее
Идентификатор                            : 1 (0x1)
Полное имя                               : D:\Релизы\KVN-2016. Vyisshaya liga. 1.8 finala. Igra 3 (2016.03.27)_DVB.ts
Формат                                   : MPEG-TS
Размер файла                             : 2,32 Гбайт
Продолжительность                        : 1 ч. 48 м.
Режим общего битрейта                    : Переменный
Общий поток                              : 3053 Кбит/сек

Видео
Идентификатор                            : 1011 (0x3F3)
Идентификатор меню                       : 1010 (0x3F2)
Формат                                   : AVC
Формат/Информация                        : Advanced Video Codec
Профиль формата                          : Main@L3
Параметр CABAC формата                   : Да
Параметр ReFrames формата                : 3 кадра
Идентификатор кодека                     : 27
Продолжительность                        : 1 ч. 48 м.
Битрейт                                  : 2708 Кбит/сек
Ширина                                   : 720 пикселей
Высота                                   : 576 пикселей
Соотношение сторон                       : 16:9
Частота кадров                           : 25,000 кадров/сек
Стандарт вещания                         : Component
Цветовое пространство                    : YUV
Субдискретизация насыщенности            : 4:2:0
Битовая глубина                          : 8 бит
Тип развёртки                            : Чересстрочная
Порядок развёртки                        : Верхнее поле первое
Бит/(Пиксели*Кадры)                      : 0.261
Размер потока                            : 2,05 Гбайт (89%)
Цветовой диапазон                        : Limited
Основные цвета                           : BT.601 PAL
Характеристики трансфера                 : BT.470 System B, BT.470 System G
Коэффициенты матрицы                     : BT.601

Аудио
Идентификатор                            : 1012 (0x3F4)
Идентификатор меню                       : 1010 (0x3F2)
Формат                                   : MPEG Audio
Версия формата                           : Version 1
Профиль формата                          : Layer 2
Идентификатор кодека                     : 3
Продолжительность                        : 1 ч. 48 м.
Вид битрейта                             : Постоянный
Битрейт                                  : 192 Кбит/сек
Каналы                                   : 2 канала
Частота                                  : 48,0 КГц
Метод сжатия                             : С потерями
Размер потока                            : 149 Мбайт (6%)
Язык                                     : English

Текст
Идентификатор                            : 1013 (0x3F5)-100
Идентификатор меню                       : 1010 (0x3F2)
Формат                                   : Teletext
Язык                                     : Russian
 

Команды:

«Азия Mix» (Бишкек)
Сборная Физтеха (Долгопрудный)
Сборная вузов ГУУ и МИСиС (Москва)
«Уфа», Республика Башкортостан
Сборная АГПУ «Русская дорога» (Армавир)
Скриншоты:


КВН на Torrents43.com

Детали торрента:
Название:КВН-2016. Высшая лига. 1.8 финала. Игра 3 (2016.03.27) DVB [H.264]
Дата добавления:27 Мар 2016 15:35:08
Размер:2,32 GB
Раздают:1
Качают:0
Форум:КВН

All rights reserved © 2015-2018