TORRENTS43.COM

Скачать Tatiana Sergeeva - Russian Harpsichord Music of the XIX century. (1997) [FLAC|Lossless|image + .cue] <Classical, Baroque, Keyboard>


Tatiana Sergeeva - Russian Harpsichord Music of the XIX century. (1997)
Год: 1997
Жанр: Classical, Baroque, Keyboard
Издание: Cantabile - CCD0014
Продолжительность: 00:52:07

Кодек: FLAC
Битрейт: Lossless
Тип рипа: image + .cue

Треклист:
01. Bortnyansky: Sonata B-dur 3:57
02. Bortnyansky: Sonata C-dur - I. Allegro moderato 4:41
03. II. Adagio 6:18
04. III. Rondo 2:36
05. Bortnyansky: Sonata F-dur 5:46
06. Titov: Waltz f-moll 0:51
07. Titov: Kontrdance C-dur 1:04
08. Karaulov: Russian Song with Variations c-moll 6:43
09. Zhilin: Waltz As-dur 1:15
10. Zhilin: Russian Song with Variations A-dur 2:30
11. Narishkina: Kontrrdance c-moll 0:46
12. Gurilev: Russian Song with Variations c-moll 10:15
13. Gurilev: Polka-Mazurka D-dur 2:24
14. Kozlovsky: Polonaise c-moll 3:02
15. Laskovsky: Fuge c-moll 3:38

Дополнительная информация:



Отчёт EAC:

Код:

Exact Audio Copy V1.0 beta 3 from 29. August 2011

Отчёт EAC об извлечении, выполненном 7. июня 2015, 13:47

Tatiana Sergeeva / Russian Harpsichord Music of the XIX c.

Дисковод: Optiarc DVD RW AD-7260S   Adapter: 0  ID: 1

Режим чтения                 : Достоверность
Использование точного потока : Да
Отключение кэша аудио        : Да
Использование указателей C2  : Нет

Коррекция смещения при чтении                     : 48
Способность читать области Lead-in и Lead-out     : Нет
Заполнение пропущенных сэмплов тишиной            : Да
Удаление блоков с тишиной в начале и конце        : Нет
При вычислениях CRC использовались нулевые сэмплы : Да
Интерфейс                                         : Встроенный Win32-интерфейс для Win NT/2000

Выходной формат          : Пользовательский кодировщик
Выбранный битрейт        : 896 kBit/s
Качество                 : Высокий
Добавление ID3-тега      : Нет
Утилита сжатия           : C:\Program Files\FLAC Frontend\tools\flac.exe
Дополнительные параметры : -V -8 -T "Date=%year%" -T "Genre=%genre%" %source%

TOC извлечённого CD

     Трек |   Старт  | Длительность | Начальный сектор | Конечный сектор
    ---------------------------------------------------------------------
       1  |  0:00.00 |    3:57.17   |           0      |      17791
       2  |  3:57.17 |    4:40.38   |       17792      |      38829
       3  |  8:37.55 |    6:17.47   |       38830      |      67151
       4  | 14:55.27 |    2:35.38   |       67152      |      78814
       5  | 17:30.65 |    5:46.35   |       78815      |     104799
       6  | 23:17.25 |    0:51.20   |      104800      |     108644
       7  | 24:08.45 |    1:04.17   |      108645      |     113461
       8  | 25:12.62 |    6:42.70   |      113462      |     143681
       9  | 31:55.57 |    1:14.40   |      143682      |     149271
      10  | 33:10.22 |    2:29.63   |      149272      |     160509
      11  | 35:40.10 |    0:45.50   |      160510      |     163934
      12  | 36:25.60 |   10:14.72   |      163935      |     210056
      13  | 46:40.57 |    2:24.05   |      210057      |     220861
      14  | 49:04.62 |    3:02.13   |      220862      |     234524
      15  | 52:07.00 |    3:37.47   |      234525      |     250846

Характеристики диапазона извлечения и сообщения об ошибках

Выбранный диапазон

     Имя файла D:\EAC\Мои раздачи\Russian Harpsichord Music of the XIX c - Sergeeva\Tatiana Sergeeva - Russian Harpsichord Music of the XIX c..wav

     Пиковый уровень 49.5 %
     Скорость извлечения 3.9 X
     Качество диапазона 100.0 %
     CRC теста 8FE2D1C4
     CRC копии 8FE2D1C4
     Копирование... OK

Ошибок не произошло

AccurateRip: сводка

Трек  1  отсутствует в базе данных
Трек  2  отсутствует в базе данных
Трек  3  отсутствует в базе данных
Трек  4  отсутствует в базе данных
Трек  5  отсутствует в базе данных
Трек  6  отсутствует в базе данных
Трек  7  отсутствует в базе данных
Трек  8  отсутствует в базе данных
Трек  9  отсутствует в базе данных
Трек 10  отсутствует в базе данных
Трек 11  отсутствует в базе данных
Трек 12  отсутствует в базе данных
Трек 13  отсутствует в базе данных
Трек 14  отсутствует в базе данных
Трек 15  отсутствует в базе данных

Ни одного трека нет в базе AccurateRip

Конец отчёта

==== Контрольная сумма отчёта D9C7EE1B711320CAB89713251859C0468CCCD7CFAB1D13CE5F5964DD3DD44523 ====

Cue Sheet (.cue):

Код:

REM GENRE Classical
REM DATE 1997
REM DISCID DC0D100F
REM COMMENT "ExactAudioCopy v1.0b3"
PERFORMER "Tatiana Sergeeva"
TITLE "Russian Harpsichord Music of the XIX c."
FILE "Tatiana Sergeeva - Russian Harpsichord Music of the XIX c..flac" WAVE
  TRACK 01 AUDIO
    TITLE "Bortnyansky: Sonata B-dur"
    PERFORMER "Tatiana Sergeeva"
    INDEX 01 00:00:00
  TRACK 02 AUDIO
    TITLE "Bortnyansky: Sonata C-dur - I. Allegro moderato"
    PERFORMER "Tatiana Sergeeva"
    INDEX 00 03:53:70
    INDEX 01 03:57:17
  TRACK 03 AUDIO
    TITLE "II. Adagio"
    PERFORMER "Tatiana Sergeeva"
    INDEX 00 08:36:45
    INDEX 01 08:37:55
  TRACK 04 AUDIO
    TITLE "III. Rondo"
    PERFORMER "Tatiana Sergeeva"
    INDEX 01 14:55:27
  TRACK 05 AUDIO
    TITLE "Bortnyansky: Sonata F-dur"
    PERFORMER "Tatiana Sergeeva"
    INDEX 00 17:28:50
    INDEX 01 17:30:65
  TRACK 06 AUDIO
    TITLE "Titov: Waltz f-moll"
    PERFORMER "Tatiana Sergeeva"
    INDEX 00 23:14:42
    INDEX 01 23:17:25
  TRACK 07 AUDIO
    TITLE "Titov: Kontrdance C-dur"
    PERFORMER "Tatiana Sergeeva"
    INDEX 00 24:06:10
    INDEX 01 24:08:45
  TRACK 08 AUDIO
    TITLE "Karaulov: Russian Song with Variations c-moll"
    PERFORMER "Tatiana Sergeeva"
    INDEX 00 25:11:05
    INDEX 01 25:12:62
  TRACK 09 AUDIO
    TITLE "Zhilin: Waltz As-dur"
    PERFORMER "Tatiana Sergeeva"
    INDEX 00 31:53:70
    INDEX 01 31:55:57
  TRACK 10 AUDIO
    TITLE "Zhilin: Russian Song with Variations A-dur"
    PERFORMER "Tatiana Sergeeva"
    INDEX 00 33:08:37
    INDEX 01 33:10:22
  TRACK 11 AUDIO
    TITLE "Narishkina: Kontrrdance c-moll"
    PERFORMER "Tatiana Sergeeva"
    INDEX 00 35:37:37
    INDEX 01 35:40:10
  TRACK 12 AUDIO
    TITLE "Gurilev: Russian Song with Variations c-moll"
    PERFORMER "Tatiana Sergeeva"
    INDEX 00 36:23:34
    INDEX 01 36:25:60
  TRACK 13 AUDIO
    TITLE "Gurilev: Polka-Mazurka D-dur"
    PERFORMER "Tatiana Sergeeva"
    INDEX 00 46:38:20
    INDEX 01 46:40:57
  TRACK 14 AUDIO
    TITLE "Kozlovsky: Polonaise c-moll"
    PERFORMER "Tatiana Sergeeva"
    INDEX 00 49:03:10
    INDEX 01 49:04:62
  TRACK 15 AUDIO
    TITLE "Laskovsky: Fuge c-moll"
    PERFORMER "Tatiana Sergeeva"
    INDEX 00 52:05:65
    INDEX 01 52:07:00

Отчёт auCDtect Task manager:

Код:

-----------------------

DON'T MODIFY THIS FILE

-----------------------

PERFORMER: auCDtect Task Manager, ver. 1.6.0 RC1 build 1.6.0.1
Copyright (c) 2008-2010 y-soft. All rights reserved
http://y-soft.org

ANALYZER: auCDtect: CD records authenticity detector, version 0.8.2
Copyright (c) 2004 Oleg Berngardt. All rights reserved.
Copyright (c) 2004 Alexander Djourik. All rights reserved.

FILE: Tatiana Sergeeva - Russian Harpsichord Music of the XIX c..flac
  Size: 299871606 Hash: 70C12DD94E8950164AAE31D3C19F5011 Accuracy: -m0
  Conclusion: CDDA 100%
  Signature: 849CE068556604EE80694D251F568BCE688A9CB7
YouTube
Детали торрента:
Название:Tatiana Sergeeva - Russian Harpsichord Music of the XIX century. (1997) [FLAC|Lossless|image + .cue] <Classical, Baroque, Keyboard>
Дата добавления:28 Мар 2016 02:47:03
Размер:294 MB
Раздают:2
Качают:0
Форум:Камерная (Lossless)

All rights reserved © 2015-2018