TORRENTS43.COM

Скачать Труп Анны Фритц / El cadaver de Anna Fritz (2015) BDRip [H.264] [AVO]


Труп Анны Фритц / El cadaver de Anna Fritz (2015) BDRip
Производство: Испания
Жанр: Триллер, драма

Режиссер: Гектор Эрнандес
Актеры: Дэниэл Азер, Альберт Карбо, Белен Фабра, Монтсеррат Миральес, Генри Моралес, Альба Рибас, Бернат Саумелл, Кристиан Валенсиа

Описание:
Анна Фритц, известная испанская актриса, найдена мёртвой в гостиничном номере. Она была одной из самых желанных женщин и неожиданный уход обернулся горем для поклонников её красоты. Тело Анны хранится в морге, в котором работает Пау. Пьяные друзья подговаривают парня пробраться в морг и, увидев обнажённый труп Анны, решили с ней поиграть. Во время их занятия Анна вдруг открыла глаза...


Рейтинг MPAA: R (лицам до 17 лет обязательно присутствие взрослого)
Дата мировой премьеры: 15 марта 2015

Релиз от: K.E.N (Torrents43.com)
Продолжительность: 01:14:06
Качество видео: BDRip
Перевод: Авторский одноголосый (Андрей Дольский)
Субтитры: Английские

Видео: AVC, 1024x540, 24 fps, 2 357 Kbps (0.178 bit/pixel)
Аудио: AC-3, 48.0 KHz, 6 ch, 448 Kbps, CBR

MediaInfo:

Код: выделить все
Формат                                   : Matroska
Версия формата                           : Version 2
Размер файла                             : 1,45 Гбайт
Продолжительность                        : 1 ч. 14 м.
Общий поток                              : 2807 Кбит/сек
Дата кодирования                         : UTC 2016-03-28 18:45:28
Программа кодирования                    : mkvmerge v5.3.0 ('I could have danced') built on Feb  9 2012 10:38:07
Библиотека кодирования                   : libebml v1.2.3 + libmatroska v1.3.0
Attachment                               : Yes

Видео
Идентификатор                            : 1
Формат                                   : AVC
Формат/Информация                        : Advanced Video Codec
Профиль формата                          : High@L4.1
Параметр CABAC формата                   : Да
Параметр ReFrames формата                : 8 кадров
Идентификатор кодека                     : V_MPEG4/ISO/AVC
Продолжительность                        : 1 ч. 14 м.
Битрейт                                  : 2357 Кбит/сек
Ширина                                   : 1024 пикселя
Высота                                   : 540 пикселей
Соотношение сторон                       : 1,896
Режим частоты кадров                     : Постоянный
Частота кадров                           : 24,000 кадра/сек
Цветовое пространство                    : YUV
Субдискретизация насыщенности            : 4:2:0
Битовая глубина                          : 8 бит
Тип развёртки                            : Прогрессивная
Бит/(Пиксели*Кадры)                      : 0.178
Размер потока                            : 1,19 Гбайт (82%)
Библиотека кодирования                   : x264 core 146 r2538 121396c
Настройки программы                      : cabac=1 / ref=8 / deblock=1:-2:-1 / analyse=0x3:0x133 / me=umh / subme=10 / psy=1 / psy_rd=1.00:0.00 / mixed_ref=1 / me_range=32 / chroma_me=1 / trellis=2 / 8x8dct=1 / cqm=0 / deadzone=21,11 / fast_pskip=0 / chroma_qp_offset=-2 / threads=12 / lookahead_threads=2 / sliced_threads=0 / nr=0 / decimate=1 / interlaced=0 / bluray_compat=0 / constrained_intra=0 / bframes=8 / b_pyramid=2 / b_adapt=2 / b_bias=0 / direct=3 / weightb=1 / open_gop=0 / weightp=2 / keyint=240 / keyint_min=23 / scenecut=40 / intra_refresh=0 / rc=2pass / mbtree=0 / bitrate=2357 / ratetol=1.0 / qcomp=0.60 / qpmin=0 / qpmax=69 / qpstep=4 / cplxblur=20.0 / qblur=0.5 / ip_ratio=1.40 / pb_ratio=1.30 / aq=2:0.70
Default                                  : Да
Forced                                   : Нет

Аудио
Идентификатор                            : 2
Формат                                   : AC-3
Формат/Информация                        : Audio Coding 3
Расширение режима                        : CM (complete main)
Параметр Endianness формата              : Big
Идентификатор кодека                     : A_AC3
Продолжительность                        : 1 ч. 14 м.
Вид битрейта                             : Постоянный
Битрейт                                  : 448 Кбит/сек
Каналы                                   : 6 каналов
Расположение каналов                     : Front: L C R, Side: L R, LFE
Частота                                  : 48,0 КГц
Битовая глубина                          : 16 бит
Метод сжатия                             : С потерями
Размер потока                            : 237 Мбайт (16%)
Default                                  : Да
Forced                                   : Нет

Текст
Идентификатор                            : 3
Формат                                   : UTF-8
Идентификатор кодека                     : S_TEXT/UTF8
Идентификатор кодека/Информация          : UTF-8 Plain Text
Default                                  : Да
Forced                                   : Нет

Меню
00:00:00.000                             : :00:00:00.000
00:02:17.792                             : :00:02:17.792
00:06:30.458                             : :00:06:30.458
00:11:05.750                             : :00:11:05.750
00:17:18.375                             : :00:17:18.375
00:23:18.542                             : :00:23:18.542
00:27:40.167                             : :00:27:40.167
00:34:01.542                             : :00:34:01.542
00:40:21.083                             : :00:40:21.083
00:47:06.792                             : :00:47:06.792
00:54:44.000                             : :00:54:44.000
01:01:05.375                             : :01:01:05.375
01:04:45.500                             : :01:04:45.500
01:08:19.417                             : :01:08:19.417
01:11:46.000                             : :01:11:46.000
Скриншоты:


Все релизы Труп Анны Фритц / El cadaver de Anna Fritz (2015)

Смотреть Online

http://moonwalk.cc/video/dd0a1135fc5d20e7/iframe
Детали торрента:
Название:Труп Анны Фритц / El cadaver de Anna Fritz (2015) BDRip [H.264] [AVO]
Дата добавления:29 Мар 2016 07:53:30
Размер:1,45 GB
Раздают:1
Качают:0
Форум:Зарубежные Фильмы (HD*Rip/LQ, DVDRip, SATRip, VHSRip)

All rights reserved © 2015-2018