TORRENTS43.COM

Скачать Louna - Песни о мире (С симфоническим оркестром Globalis) (2016) Live [FLAC|Lossless|image + .cue] <Rock>


Louna - Песни о мире (С симфоническим оркестром Globalis) (2016) Live


Год: 2016 Жанр: Rock Издание: Soyuz - SZDVDCD 6518-16 Продолжительность: 01:40:54 Источник: chikanok
Кодек: FLAC Битрейт: Lossless Тип рипа: image + .cue Наличие сканов: Да

CD 1:

Треклист:
01. Оркестровая увертюра
02. Зачем
03. Путь к себе
04. Кто, если не мы
05. Солнце
06. Сожженная заживо
07. Вендетта
08. Штурмуя небеса
09. Словно Форрест Гамп
10. С тобой
11. Против всех
Продолжительноcть: 00:53:37

Отчет EAC:

Код:
Exact Audio Copy V1.1 from 23. June 2015

Отчёт EAC об извлечении, выполненном 29. марта 2016, 21:45

Louna / Песни о мире (CD1)

Дисковод: Optiarc DVD RW AD-7203A   Adapter: 1  ID: 0

Режим чтения                 : Достоверность
Использование точного потока : Да
Отключение кэша аудио        : Да
Использование указателей C2  : Нет

Коррекция смещения при чтении                     : 48
Способность читать области Lead-in и Lead-out     : Нет
Заполнение пропущенных сэмплов тишиной            : Да
Удаление блоков с тишиной в начале и конце        : Нет
При вычислениях CRC использовались нулевые сэмплы : Да
Интерфейс                                         : Встроенный Win32-интерфейс для Win NT/2000

Выходной формат          : Пользовательский кодировщик
Выбранный битрейт        : 896 kBit/s
Качество                 : Высокий
Добавление ID3-тега      : Нет
Утилита сжатия           : C:\Program Files (x86)\Exact Audio Copy\flac-1.3.1-win\win64\flac.exe
Дополнительные параметры : -V -8 -T "Date=%year%" -T "Genre=%genre%" %source%

TOC извлечённого CD

     Трек |   Старт  | Длительность | Начальный сектор | Конечный сектор
    ---------------------------------------------------------------------
       1  |  0:00.00 |    5:40.42   |           0      |      25541
       2  |  5:40.42 |    3:25.39   |       25542      |      40955
       3  |  9:06.06 |    4:25.14   |       40956      |      60844
       4  | 13:31.20 |    4:42.69   |       60845      |      82063
       5  | 18:14.14 |    5:23.56   |       82064      |     106344
       6  | 23:37.70 |    7:09.01   |      106345      |     138520
       7  | 30:46.71 |    5:23.73   |      138521      |     162818
       8  | 36:10.69 |    5:53.72   |      162819      |     189365
       9  | 42:04.66 |    3:39.73   |      189366      |     205863
      10  | 45:44.64 |    4:01.69   |      205864      |     224007
      11  | 49:46.58 |    3:48.45   |      224008      |     241152

Характеристики диапазона извлечения и сообщения об ошибках

Выбранный диапазон

     Имя файла F:\(2016) - Louna - Песни о мире (FLAC)\CD1\Louna - Песни о мире (CD1).wav

     Пиковый уровень 100.0 %
     Скорость извлечения 4.0 X
     Качество диапазона 100.0 %
     CRC теста 00258E6D
     CRC копии 00258E6D
     Копирование... OK

Ошибок не произошло

AccurateRip: сводка

Трек  1  отсутствует в базе данных
Трек  2  отсутствует в базе данных
Трек  3  отсутствует в базе данных
Трек  4  отсутствует в базе данных
Трек  5  отсутствует в базе данных
Трек  6  отсутствует в базе данных
Трек  7  отсутствует в базе данных
Трек  8  отсутствует в базе данных
Трек  9  отсутствует в базе данных
Трек 10  отсутствует в базе данных
Трек 11  отсутствует в базе данных

Ни одного трека нет в базе AccurateRip

Конец отчёта

---- CUETools DB Plugin V2.1.6

[CTDB TOCID: HEfKJgLnvZ9hVlRSV2TYEy6inzM-] disk not present in database
Submit result: HEfKJgLnvZ9hVlRSV2TYEy6inzM- has been uploaded

==== Контрольная сумма отчёта 795AC3759DEEA2E274ABF72C1D5095E2C1ECFC7AC85C0F61774AA358C7AA26A8 ====

Отчет auCDtect Task manager:

Код:
-----------------------

DON'T MODIFY THIS FILE

-----------------------

PERFORMER: auCDtect Task Manager, ver. 1.6.0 RC1 build 1.6.0.1
Copyright (c) 2008-2010 y-soft. All rights reserved
http://y-soft.org

ANALYZER: auCDtect: CD records authenticity detector, version 0.8.2
Copyright (c) 2004 Oleg Berngardt. All rights reserved.
Copyright (c) 2004 Alexander Djourik. All rights reserved.

FILE: Louna - Песни о мире (CD1).flac
  Size: 388205164 Hash: ED41FDDD0C42CD9A765A6487CF8558E8 Accuracy: -m0
  Conclusion: MPEG 95%
  Signature: 964B42A0B57AD896FFBFD9481D0FB7F693889C7C

Спектрограмма:

Отчет .CUE:

Код:
REM GENRE "Alt. Rock"
REM DATE 2016
REM DISCID A50C8F0B
REM COMMENT "ExactAudioCopy v1.1"
PERFORMER "Louna"
TITLE "Песни о мире (CD1)"
FILE "Louna - Песни о мире (CD1).flac" WAVE
  TRACK 01 AUDIO
    TITLE "Оркестровая увертюра"
    PERFORMER "Louna"
    INDEX 01 00:00:00
  TRACK 02 AUDIO
    TITLE "Зачем?"
    PERFORMER "Louna"
    INDEX 01 05:40:42
  TRACK 03 AUDIO
    TITLE "Путь к себе"
    PERFORMER "Louna"
    INDEX 01 09:06:06
  TRACK 04 AUDIO
    TITLE "Кто, если не мы?"
    PERFORMER "Louna"
    INDEX 01 13:31:20
  TRACK 05 AUDIO
    TITLE "Солнце"
    PERFORMER "Louna"
    INDEX 01 18:14:14
  TRACK 06 AUDIO
    TITLE "Сожженая заживо"
    PERFORMER "Louna"
    INDEX 01 23:37:70
  TRACK 07 AUDIO
    TITLE "Вендетта"
    PERFORMER "Louna"
    INDEX 01 30:46:71
  TRACK 08 AUDIO
    TITLE "Штурмуя небеса"
    PERFORMER "Louna"
    INDEX 01 36:10:69
  TRACK 09 AUDIO
    TITLE "Словно Форрест Гамп"
    PERFORMER "Louna"
    INDEX 01 42:04:66
  TRACK 10 AUDIO
    TITLE "С тобой"
    PERFORMER "Louna"
    INDEX 01 45:44:64
  TRACK 11 AUDIO
    TITLE "Против всех"
    PERFORMER "Louna"
    INDEX 01 49:46:58

CD 2:

Треклиcт:
01. Ящик Пандоры
02. Люди смотрят вверх
03. Чужой среди своих
04. Песня о мире
05. Во мне
06. Ночь, дорога и рок
07. Мама
08. Дорога бойца
09. Свобода
10. Мир и любовь
Продолжительноcть: 00:47:23

Отчет EAC:

Код:
Exact Audio Copy V1.1 from 23. June 2015

Отчёт EAC об извлечении, выполненном 29. марта 2016, 22:23

Louna / Песни о мире (CD2)

Дисковод: Optiarc DVD RW AD-7203A   Adapter: 1  ID: 0

Режим чтения                 : Достоверность
Использование точного потока : Да
Отключение кэша аудио        : Да
Использование указателей C2  : Нет

Коррекция смещения при чтении                     : 48
Способность читать области Lead-in и Lead-out     : Нет
Заполнение пропущенных сэмплов тишиной            : Да
Удаление блоков с тишиной в начале и конце        : Нет
При вычислениях CRC использовались нулевые сэмплы : Да
Интерфейс                                         : Встроенный Win32-интерфейс для Win NT/2000

Выходной формат          : Пользовательский кодировщик
Выбранный битрейт        : 896 kBit/s
Качество                 : Высокий
Добавление ID3-тега      : Нет
Утилита сжатия           : C:\Program Files (x86)\Exact Audio Copy\flac-1.3.1-win\win64\flac.exe
Дополнительные параметры : -V -8 -T "Date=%year%" -T "Genre=%genre%" %source%

TOC извлечённого CD

     Трек |   Старт  | Длительность | Начальный сектор | Конечный сектор
    ---------------------------------------------------------------------
       1  |  0:00.00 |    5:24.18   |           0      |      24317
       2  |  5:24.18 |    4:17.32   |       24318      |      43624
       3  |  9:41.50 |    3:28.46   |       43625      |      59270
       4  | 13:10.21 |    5:34.54   |       59271      |      84374
       5  | 18:45.00 |    4:44.56   |       84375      |     105730
       6  | 23:29.56 |    3:46.26   |      105731      |     122706
       7  | 27:16.07 |    4:03.32   |      122707      |     140963
       8  | 31:19.39 |    4:14.16   |      140964      |     160029
       9  | 35:33.55 |    5:59.49   |      160030      |     187003
      10  | 41:33.29 |    5:45.70   |      187004      |     212948

Характеристики диапазона извлечения и сообщения об ошибках

Выбранный диапазон

     Имя файла F:\(2016) - Louna - Песни о мире (FLAC)\CD2\Louna - Песни о мире (CD2).wav

     Пиковый уровень 100.0 %
     Скорость извлечения 3.9 X
     Качество диапазона 100.0 %
     CRC теста 4D85247C
     CRC копии 4D85247C
     Копирование... OK

Ошибок не произошло

AccurateRip: сводка

Трек  1  отсутствует в базе данных
Трек  2  отсутствует в базе данных
Трек  3  отсутствует в базе данных
Трек  4  отсутствует в базе данных
Трек  5  отсутствует в базе данных
Трек  6  отсутствует в базе данных
Трек  7  отсутствует в базе данных
Трек  8  отсутствует в базе данных
Трек  9  отсутствует в базе данных
Трек 10  отсутствует в базе данных

Ни одного трека нет в базе AccurateRip

Конец отчёта

---- CUETools DB Plugin V2.1.6

[CTDB TOCID: SkGW80LX7FZYfaewEUF1D4moNLc-] disk not present in database
Submit result: SkGW80LX7FZYfaewEUF1D4moNLc- has been uploaded

==== Контрольная сумма отчёта A3F6C790BF66C94C2455C8D1A45BFE0F665C0784AB37319B9BB0E45F62B7DB98 ====

Отчет auCDtect Task manager:

Код:
-----------------------

DON'T MODIFY THIS FILE

-----------------------

PERFORMER: auCDtect Task Manager, ver. 1.6.0 RC1 build 1.6.0.1
Copyright (c) 2008-2010 y-soft. All rights reserved
http://y-soft.org

ANALYZER: auCDtect: CD records authenticity detector, version 0.8.2
Copyright (c) 2004 Oleg Berngardt. All rights reserved.
Copyright (c) 2004 Alexander Djourik. All rights reserved.

FILE: Louna - Песни о мире (CD2).flac
  Size: 343104285 Hash: 3ED2777B941617A675BB169B96CD0643 Accuracy: -m0
  Conclusion: MPEG 95%
  Signature: 3913348A8C85B6C6170A5298421EE0E1C713888E

Спектрограмма:

Отчет .CUE:

Код:
REM GENRE "Alt. Rock"
REM DATE 2016
REM DISCID 840B170A
REM COMMENT "ExactAudioCopy v1.1"
PERFORMER "Louna"
TITLE "Песни о мире (CD2)"
FILE "Louna - Песни о мире (CD2).flac" WAVE
  TRACK 01 AUDIO
    TITLE "Ящик Пандоры"
    PERFORMER "Louna"
    INDEX 01 00:00:00
  TRACK 02 AUDIO
    TITLE "Люди смотрят вверх"
    PERFORMER "Louna"
    INDEX 01 05:24:18
  TRACK 03 AUDIO
    TITLE "Чужой среди своих"
    PERFORMER "Louna"
    INDEX 01 09:41:50
  TRACK 04 AUDIO
    TITLE "Песня о мире"
    PERFORMER "Louna"
    INDEX 01 13:10:21
  TRACK 05 AUDIO
    TITLE "Во мне"
    PERFORMER "Louna"
    INDEX 01 18:45:00
  TRACK 06 AUDIO
    TITLE "Ночь, дорога и рок"
    PERFORMER "Louna"
    INDEX 01 23:29:56
  TRACK 07 AUDIO
    TITLE "Мама"
    PERFORMER "Louna"
    INDEX 01 27:16:07
  TRACK 08 AUDIO
    TITLE "Дорога бойца"
    PERFORMER "Louna"
    INDEX 01 31:19:39
  TRACK 09 AUDIO
    TITLE "Свобода"
    PERFORMER "Louna"
    INDEX 01 35:33:55
  TRACK 10 AUDIO
    TITLE "Мир и любовь"
    PERFORMER "Louna"
    INDEX 01 41:33:29
Детали торрента:
Название:Louna - Песни о мире (С симфоническим оркестром Globalis) (2016) Live [FLAC|Lossless|image + .cue] <Rock>
Дата добавления:30 Мар 2016 21:19:39
Размер:733 MB
Раздают:1
Качают:0
Форум:Русский Рок (Lossless)

All rights reserved © 2015-2018