TORRENTS43.COM

Скачать Elina Garanca - Mozart - Opera & Concert Arias (2005) [FLAC|Lossless|image + .cue] <Classical, Opera>


Elina Garanca, Camerata Salzburg, Louis Langrée - Mozart - Opera & Concert Arias (2005)
Год: 2005
Жанр: Classical, Opera
Издание: Virgin Classics – 0946 332631 2 3
Продолжительность: 01:02:14

Кодек: FLAC
Битрейт: Lossless
Тип рипа: image + .cue
Сканы есть - *.jpg

Треклист:
01. Chi sa, chi sa, quai sia - KV 582 3:23
02. La Clemenza di Tito, KV 621: 1. Akt, Nr. 2 - Deh, se piacer mi vuoi 5:59
03. Basta, vincesti... Ah, non lasciarmi, no - KV 486a 6:30
04. La finta giardiniera, KV 196: 3. Akt - Va pure ad altri 3:37
05. Alma grande e nobil core - KV 578 4:15
06. Misero me!... Misero pargoletto - KV 77 14:50
07. La finta giardiniera, KV 196: 1. Akt - Se lґaugellin sen fugge 4:26
08. Cosм fan tutte, KV 588: 1. Akt, Nr. 11 - Ah, scostati!... Smanie implacabili 3:13
09. Ch'io mi scordi di te?... Non temer, amato bene - KV 505 10:10
10. Cosм fan tutte, KV 588: 1. Akt, Nr. 13 - Temerari... Nr. 14 - Come scoglio 5:50

Дополнительная информация:

Composed By – Wolfgang Amadeus Mozart
Conductor – Louis Langree
Ensemble – Camerata Salzburg









Отчёт EAC:

Код:

Exact Audio Copy V0.99 prebeta 5 from 4. May 2009

Отчёт EAC об извлечении, выполненном 26. декабря 2012, 16:57

Elina Garanca, mezzo-sopran - Camerata Salzburg, Ltg. Louis Langrйe / Mozart Opera & Concert Arias

Дисковод: _NEC    DVD_RW ND-4571A   Adapter: 0  ID: 0

Режим чтения                 : Достоверность
Использование точного потока : Да
Отключение кэша аудио        : Да
Использование указателей C2  : Нет

Коррекция смещения при чтении                     : 48
Способность читать области Lead-in и Lead-out     : Нет
Заполнение пропущенных сэмплов тишиной            : Да
Удаление блоков с тишиной в начале и конце        : Нет
При вычислениях CRC использовались нулевые сэмплы : Да
Интерфейс                                         : Встроенный Win32-интерфейс для Win NT/2000

Выходной формат          : Пользовательский кодировщик
Выбранный битрейт        : 768 kBit/s
Качество                 : Высокий
Добавление ID3-тэга      : Нет
Утилита сжатия           : C:\Program Files\Exact Audio Copy\Flac\flac.exe
Дополнительные параметры : -6 -V -T "ARTIST=%a" -T "TITLE=%t" -T "ALBUM=%g" -T "DATE=%y" -T "TRACKNUMBER=%n" -T "GENRE=%m" -T "COMMENT=%e" %s -o %d

TOC извлечённого CD

     Трек |   Старт  | Длительность | Начальный сектор | Конечный сектор
    ---------------------------------------------------------------------
       1  |  0:00.00 |    3:22.72   |           0      |      15221
       2  |  3:22.72 |    5:59.01   |       15222      |      42147
       3  |  9:21.73 |    6:30.21   |       42148      |      71418
       4  | 15:52.19 |    3:37.37   |       71419      |      87730
       5  | 19:29.56 |    4:15.08   |       87731      |     106863
       6  | 23:44.64 |   14:49.61   |      106864      |     173599
       7  | 38:34.50 |    4:26.22   |      173600      |     193571
       8  | 43:00.72 |    3:12.72   |      193572      |     208043
       9  | 46:13.69 |   10:10.32   |      208044      |     253825
      10  | 56:24.26 |    5:49.43   |      253826      |     280043

Характеристики диапазона извлечения и сообщения об ошибках

Выбранный диапазон

     Имя файла F:\EAC\E.Garanca - Mozart Opera & Concert Arias\E.Garanca - Mozart Opera & Concert Arias.wav

     Пиковый уровень 100.0 %
     Качество диапазона 100.0 %
     CRC копии 9012B644
     Копирование... OK

Ошибок не произошло

AccurateRip: сводка

Трек  1  точность не определена (достоверность 9)  [4E167408], AccurateRip вернул [F800CD73]
Трек  2  точность не определена (достоверность 10)  [94D53385], AccurateRip вернул [A1845A50]
Трек  3  точность не определена (достоверность 9)  [9787F724], AccurateRip вернул [E3E5549E]
Трек  4  точность не определена (достоверность 9)  [C11093CC], AccurateRip вернул [C132BAAB]
Трек  5  точность не определена (достоверность 10)  [D7D0ACF5], AccurateRip вернул [00C08D39]
Трек  6  точность не определена (достоверность 9)  [98F8127B], AccurateRip вернул [D2443F76]
Трек  7  точность не определена (достоверность 9)  [AB9F730E], AccurateRip вернул [37B1563A]
Трек  8  точность не определена (достоверность 9)  [57239605], AccurateRip вернул [D5F68D3E]
Трек  9  точность не определена (достоверность 9)  [C60BA7FC], AccurateRip вернул [93EF98A4]
Трек 10  точность не определена (достоверность 9)  [5AA445EA], AccurateRip вернул [124FD617]

Ни один трек не прошёл проверки на точность
В вашей базе может быть иной вариант штамповки диска

Конец отчёта

Cue Sheet (.cue):

Код:

REM GENRE Classical
REM DATE 2005
REM DISCID 850E950A
REM COMMENT "ExactAudioCopy v0.99pb5"
PERFORMER "Elina Garanca"
TITLE "Mozart Opera & Concert Arias"
FILE "E.Garanca - Mozart Opera & Concert Arias.flac" WAVE
  TRACK 01 AUDIO
    TITLE "Chi sa, chi sa, quai sia - KV 582"
    PERFORMER "Elina Garanca"
    ISRC GBAYC0500850
    INDEX 01 00:00:00
  TRACK 02 AUDIO
    TITLE "La Clemenza di Tito, KV 621: 1. Akt, Nr. 2 - Deh, se piacer mi vuoi"
    PERFORMER "Elina Garanca"
    ISRC GBAYC0500833
    INDEX 01 03:22:72
  TRACK 03 AUDIO
    TITLE "Basta, vincesti... Ah, non lasciarmi, no - KV 486a"
    PERFORMER "Elina Garanca"
    ISRC GBAYC0500841
    INDEX 01 09:21:73
  TRACK 04 AUDIO
    TITLE "La finta giardiniera, KV 196: 3. Akt - Va pure ad altri"
    PERFORMER "Elina Garanca"
    ISRC GBAYC0500847
    INDEX 01 15:52:19
  TRACK 05 AUDIO
    TITLE "Alma grande e nobil core - KV 578"
    PERFORMER "Elina Garanca"
    ISRC GBAYC0500840
    INDEX 01 19:29:56
  TRACK 06 AUDIO
    TITLE "Misero me!... Misero pargoletto - KV 77"
    PERFORMER "Elina Garanca"
    ISRC GBAYC0500835
    INDEX 01 23:44:64
  TRACK 07 AUDIO
    TITLE "La finta giardiniera, KV 196: 1. Akt - Se lґaugellin sen fugge"
    PERFORMER "Elina Garanca"
    ISRC GBAYC0500845
    INDEX 01 38:34:50
  TRACK 08 AUDIO
    TITLE "Cosм fan tutte, KV 588: 1. Akt, Nr. 11 - Ah, scostati!... Smanie implacabili"
    PERFORMER "Elina Garanca"
    ISRC GBAYC0500839
    INDEX 01 43:00:72
  TRACK 09 AUDIO
    TITLE "Chґio mi scordi di te?... Non temer, amato bene - KV 505"
    PERFORMER "Elina Garanca"
    ISRC GBAYC0500834
    INDEX 01 46:13:69
  TRACK 10 AUDIO
    TITLE "Cosм fan tutte, KV 588: 1. Akt, Nr. 13 - Temerari... Nr. 14 - Come scoglio"
    PERFORMER "Elina Garanca"
    ISRC GBAYC0500830
    INDEX 01 56:24:26

Отчёт auCDtect Task manager:

Код:

-----------------------

DON'T MODIFY THIS FILE

-----------------------

PERFORMER: auCDtect Task Manager, ver. 1.6.0 RC1 build 1.6.0.1
Copyright (c) 2008-2010 y-soft. All rights reserved
http://y-soft.org

ANALYZER: auCDtect: CD records authenticity detector, version 0.8.2
Copyright (c) 2004 Oleg Berngardt. All rights reserved.
Copyright (c) 2004 Alexander Djourik. All rights reserved.

FILE: E.Garanca - Mozart Opera & Concert Arias.flac
  Size: 266673682 Hash: 3D31B60D6E3680B30E74BC790BC59320 Accuracy: -m0
  Conclusion: CDDA 100%
  Signature: A5A5D1D06C39F879AC48E0CF3678DB42E57CC094
YouTube
Детали торрента:
Название:Elina Garanca - Mozart - Opera & Concert Arias (2005) [FLAC|Lossless|image + .cue] <Classical, Opera>
Дата добавления:31 Мар 2016 03:31:35
Размер:263 MB
Раздают:1
Качают:0
Форум:Вокал (Lossless)

All rights reserved © 2015-2018