TORRENTS43.COM

Скачать Квартирник у Маргулиса. 19 выпуск. Мельница (2016) WEBRip


Квартирник у Маргулиса. 19 выпуск. Мельница (2016) WEBRip
Производство: Че
Жанр: Концерт
Описание:
Мельница — знаменитая фолк-рок-группа, которая была основана в 1999 году участниками распавшейся группы «Тиль Уленшпигель». Сегодня в теплой и душевной атмосфере квартирника у Евгения Маргулиса группа Мельница и ее вокалистка Наталья О’Шей исполнят свои самые популярные и полюбившиеся песни: Прощай, Дорога сна, Дороги, Далеко, Рапунцель, Никогда, Марсианский экспресс и другие.
Дата эфира: 12.03.2016
Участники: Наталья О’Шей, Евгений Маргулис
Продолжительность: 0:47:04
Треклист:
01. Дорога Сна
02. Дороги
03. Далеко
04. Овечка
05. Никогда
06. Марсианский Экспресс
07. Прощай
08. Волкодав
09. Гори, Москва!
10. Рапунцель
11. Как ветра осенние
Качество видео: WEBRip
Видео: AVC/H.264, 704x406, ~1500
Аудио: AAC, 2 ch, 128

Mediainfo:

Код:

Общее
Полное имя                               : D:\Video\Музыка\Квартирник у Маргулиса\20160305 - Мельница - Квартирник у Маргулиса.mp4
Формат                                   : MPEG-4
Профиль формата                          : Base Media
Идентификатор кодека                     : isom (isom/iso2/avc1/mp41)
Размер файла                             : 518 Мбайт
Продолжительность                        : 47 м.
Общий поток                              : 1538 Кбит/сек
Программа кодирования                    : Lavf54.59.106

Видео
Идентификатор                            : 1
Формат                                   : AVC
Формат/Информация                        : Advanced Video Codec
Профиль формата                          : High@L4.1
Параметр CABAC формата                   : Да
Параметр ReFrames формата                : 5 кадров
Идентификатор кодека                     : avc1
Идентификатор кодека/Информация          : Advanced Video Coding
Продолжительность                        : 47 м.
Битрейт                                  : 1400 Кбит/сек
Ширина                                   : 704 пикселя
Высота                                   : 406 пикселей
Соотношение сторон                       : 1,737
Соотношение сторон в оригинале           : 1,738
Режим частоты кадров                     : Переменный
Частота кадров                           : 25,000 кадров/сек
Минимальная частота кадров               : 24,390 кадра/сек
Максимальная частота кадров              : 25,641 кадров/сек
Цветовое пространство                    : YUV
Субдискретизация насыщенности            : 4:2:0
Битовая глубина                          : 8 бит
Тип развёртки                            : Прогрессивная
Бит/(Пиксели*Кадры)                      : 0.196
Размер потока                            : 473 Мбайт (91%)
Библиотека кодирования                   : x264 core 142
Настройки программы                      : cabac=1 / ref=5 / deblock=1:0:0 / analyse=0x3:0x113 / me=umh / subme=8 / psy=1 / psy_rd=1.00:0.00 / mixed_ref=1 / me_range=16 / chroma_me=1 / trellis=1 / 8x8dct=1 / cqm=0 / deadzone=21,11 / fast_pskip=1 / chroma_qp_offset=-2 / threads=1 / lookahead_threads=1 / sliced_threads=0 / nr=0 / decimate=1 / interlaced=0 / bluray_compat=0 / constrained_intra=0 / bframes=3 / b_pyramid=2 / b_adapt=2 / b_bias=0 / direct=3 / weightb=1 / open_gop=0 / weightp=2 / keyint=100 / keyint_min=25 / scenecut=40 / intra_refresh=0 / rc_lookahead=50 / rc=abr / mbtree=1 / bitrate=1400 / ratetol=1.0 / qcomp=0.60 / qpmin=0 / qpmax=69 / qpstep=4 / ip_ratio=1.40 / aq=1:1.00

Аудио
Идентификатор                            : 2
Формат                                   : AAC
Формат/Информация                        : Advanced Audio Codec
Профиль формата                          : LC
Идентификатор кодека                     : 40
Продолжительность                        : 47 м.
Вид битрейта                             : Постоянный
Битрейт                                  : 128 Кбит/сек
Каналы                                   : 2 канала
Расположение каналов                     : Front: L R
Частота                                  : 44,1 КГц
Частота кадров                           : 43,066 кадра/сек (1024 spf)
Метод сжатия                             : С потерями
Размер потока                            : 43,1 Мбайт (8%)
Default                                  : Да
Alternate group                          : 1
Скриншоты:


Детали торрента:
Название:Квартирник у Маргулиса. 19 выпуск. Мельница (2016) WEBRip
Дата добавления:31 Мар 2016 09:04:19
Размер:518 MB
Раздают:2
Качают:0
Форум:Концерты

All rights reserved © 2015-2018