TORRENTS43.COM

Скачать Dvorak / Дворжак - Violin Concerto, Cello Concerto (Ricci, Nelsova, Susskind) (2007) [FLAC|Lossless|tracks] <Classical, Concerto>


Дворжак / Dvorak - Violin Concerto, Cello Concerto (Ricci, Nelsova, Susskind) (2007) [FLAC|Lossless|tracks] <Classical, Concerto>

Дворжак / Dvorak - Violin Concerto, Cello Concerto (Ricci, Nelsova, Susskind) (2007)
Год: 2007
Жанр: Classical, Concerto
Продолжительность: 01:06:08

Кодек: FLAC
Битрейт: Lossless
Тип рипа: tracks

Треклист:
Violin Concerto in A minor, op. 53
01. (1) Allegro ma non troppo - Adagio ma non troppo
02. (2) Finale. Allegro giocoso

Cello Concerto in B minor, op. 104
03. (1) Allegro
04. (2) Adagio ma non troppo
05. (3) Finale, allegro moderato

Исполнители: Ruggerio Ricci - violin, Zara Nelsova - cello, Saint Louis Symphony Orchestra, conductor - Walter Susskind.

Отчёт EAC:

Код:

Exact Audio Copy V1.0 beta 3 from 29. August 2011

EAC extraction logfile from 8. September 2014, 19:16

Dvorak / Violin & Cello Concertos (R. Ricci,  Z. Nelsova, W. Susskind - SLSO)

Used drive  : Optiarc DVD RW AD-5170A   Adapter: 3  ID: 0

Read mode               : Secure
Utilize accurate stream : Yes
Defeat audio cache      : Yes
Make use of C2 pointers : No

Read offset correction                      : 48
Overread into Lead-In and Lead-Out          : No
Fill up missing offset samples with silence : Yes
Delete leading and trailing silent blocks   : No
Null samples used in CRC calculations       : Yes
Used interface                              : Native Win32 interface for Win NT & 2000
Gap handling                                : Appended to previous track

Used output format              : User Defined Encoder
Selected bitrate                : 896 kBit/s
Quality                         : High
Add ID3 tag                     : No
Command line compressor         : C:\Program Files\Exact Audio Copy\FLAC\FLAC.EXE
Additional command line options : -8 -V -T "ARTIST=%artist%" -T "TITLE=%title%" -T "ALBUM=%albumtitle%" -T "DATE=%year%" -T "TRACKNUMBER=%tracknr%" -T "GENRE=%genre%" -T "COMMENT=%comment%" -T "BAND=%albuminterpret%" -T "ALBUMARTIST=%albuminterpret%" -T "COMPOSER=%composer%" %haslyrics%--tag-from-file=LYRICS="%lyricsfile%"%haslyrics% -T "DISCNUMBER=%cdnumber%" -T "TOTALDISCS=%totalcds%" -T "TOTALTRACKS=%numtracks%" %hascover%--picture="%coverfile%"%hascover% %source% -o %dest%

TOC of the extracted CD

     Track |   Start  |  Length  | Start sector | End sector
    ---------------------------------------------------------
        1  |  0:00.00 | 19:04.50 |         0    |    85849
        2  | 19:04.50 | 10:13.27 |     85850    |   131851
        3  | 29:18.02 | 14:13.60 |    131852    |   195886
        4  | 43:31.62 | 10:36.08 |    195887    |   243594
        5  | 54:07.70 | 12:02.20 |    243595    |   297764

Track  1

     Filename S:\New music\Flac\EAC\Dvorak - Violin & Cello Concertos (R. Ricci,  Z. Nelsova, W. Susskind - SLSO) [flac]\01 Violin Concerto in A minor, op. 53 (1) Allegro ma non troppo - Adagio ma non troppo.wav

     Pre-gap length  0:00:02.00

     Peak level 73.7 %
     Extraction speed 1.5 X
     Track quality 100.0 %
     Test CRC 4C1BDA94
     Copy CRC 4C1BDA94
     Accurately ripped (confidence 2)  [0A45F510]  (AR v2)
     Copy OK

Track  2

     Filename S:\New music\Flac\EAC\Dvorak - Violin & Cello Concertos (R. Ricci,  Z. Nelsova, W. Susskind - SLSO) [flac]\02 Violin Concerto in A minor, op. 53 (2) Finale. Allegro giocoso.wav

     Pre-gap length  0:00:04.50

     Peak level 74.5 %
     Extraction speed 1.8 X
     Track quality 100.0 %
     Test CRC A41FE456
     Copy CRC A41FE456
     Accurately ripped (confidence 2)  [5D17AC39]  (AR v2)
     Copy OK

Track  3

     Filename S:\New music\Flac\EAC\Dvorak - Violin & Cello Concertos (R. Ricci,  Z. Nelsova, W. Susskind - SLSO) [flac]\03 Cello Concerto in B minor, op. 104 (1) Allegro.wav

     Pre-gap length  0:00:10.00

     Peak level 69.9 %
     Extraction speed 1.4 X
     Track quality 99.8 %
     Test CRC E5F75E34
     Copy CRC E5F75E34
     Accurately ripped (confidence 2)  [0364BD47]  (AR v2)
     Copy OK

Track  4

     Filename S:\New music\Flac\EAC\Dvorak - Violin & Cello Concertos (R. Ricci,  Z. Nelsova, W. Susskind - SLSO) [flac]\04 Cello Concerto in B minor, op. 104 (2) Adagio ma non troppo.wav

     Pre-gap length  0:00:05.45

     Peak level 44.1 %
     Extraction speed 1.7 X
     Track quality 99.9 %
     Test CRC B113030C
     Copy CRC B113030C
     Accurately ripped (confidence 2)  [3A90D680]  (AR v2)
     Copy OK

Track  5

     Filename S:\New music\Flac\EAC\Dvorak - Violin & Cello Concertos (R. Ricci,  Z. Nelsova, W. Susskind - SLSO) [flac]\05 Cello Concerto in B minor, op. 104 (3) Finale, allegro moderato.wav

     Pre-gap length  0:00:06.05

     Peak level 71.0 %
     Extraction speed 1.5 X
     Track quality 99.9 %
     Test CRC EB81740A
     Copy CRC EB81740A
     Accurately ripped (confidence 3)  [4645A21A]  (AR v1)
     Copy OK

All tracks accurately ripped

No errors occurred

End of status report

==== Log checksum 6E453C5EF80C85BEF8F1503345F9E0C669E5B762D48586694B967B9B7F128818 ====

Отчёт auCDtect Task manager:

Код:

-----------------------

DON'T MODIFY THIS FILE

-----------------------

PERFORMER: auCDtect Task Manager, ver. 1.6.0 RC1 build 1.6.0.1
Copyright (c) 2008-2010 y-soft. All rights reserved
http://y-soft.org

ANALYZER: auCDtect: CD records authenticity detector, version 0.8.2
Copyright (c) 2004 Oleg Berngardt. All rights reserved.
Copyright (c) 2004 Alexander Djourik. All rights reserved.

FILE: 04 CC bm °104 (2) Adagio ma non troppo.flac
  Size: 46788251 Hash: 5A8E431AE65F7FBB29D7F0E27A7F8895 Accuracy: -m0
  Conclusion: CDDA 100%
  Signature: 051771F6AEEDA8F32E663AE313214405C2DE777B
FILE: 03 CC bm °104 (1) Allegro.flac
  Size: 69416923 Hash: D936E0FADCABC9B5BC2E5A4DF2A20F96 Accuracy: -m0
  Conclusion: CDDA 99%
  Signature: 10D61F169535EBA3BD371149F3E920D478B9EC1A
FILE: 05 CC bm °104 (3) Finale, allegro moderato.flac
  Size: 59900252 Hash: EF84189C58A6EF5DF5BB1E56206C5DDD Accuracy: -m0
  Conclusion: CDDA 100%
  Signature: 23A7EE6DDC4B819C76CB077721F9CC0ABD824A33
FILE: 02 VC am °53 (2) Finale. Allegro giocoso.flac
  Size: 52561972 Hash: B9329F7F04DA8062DC5939B9584293D2 Accuracy: -m0
  Conclusion: CDDA 100%
  Signature: 83D456974724266C71E6E52109E9E48C6563DC64
FILE: 01 VC am °53 (1) Allegro m-n-t - Adagio m-n-t.flac
  Size: 97155297 Hash: 635ECF00B9640BED2E0138C1DF47E32F Accuracy: -m0
  Conclusion: CDDA 100%
  Signature: ECEC5FF66AFA2D762A84BB4230BB72AC07DD1B75
Детали торрента:
Название:Dvorak / Дворжак - Violin Concerto, Cello Concerto (Ricci, Nelsova, Susskind) (2007) [FLAC|Lossless|tracks] <Classical, Concerto>
Дата добавления:06 Апр 2016 09:47:23
Размер:311 MB
Раздают:
Качают:0
Форум:Оркестровая (Lossless)

All rights reserved © 2015-2018