TORRENTS43.COM

Скачать Специалист | MySQL 5. Проектирование и создание баз данных для web (2015) DVDRip


Специалист | MySQL 5. Проектирование и создание баз данных для web (2015) DVDRip
Автор (режиссер): Алексей Владимирович Тарасов
Жанр: Обучающие видео-уроки

Описание:
Чтобы успешно работать, надо иметь хороший инструмент и уметь им пользоваться. В веб-технологиях одним из таких инструментов является сервер баз данных MySQL. На этом сервере базируются большинство сайтов и решений в интернете. Практический любой сайт (блоги Wordpress, CMS-системы) активно использует базы данных на сервере MySQL. Однако многие скрипты (сайты, формулы и др.) используют сервер MySQL не очень эффективно. В результате объемы баз данных неоправданно растут, скорость их обработки снижается, а количество программного кода увеличивается.

На курсе MySQL5. Проектирование и создание баз данных для web Вы овладеете основными приемами и методами эффективной работы с сервером MySQL 5. Вы рассмотрите этапы проектирования и создания баз данных, подробно изучите SQL-операторы, научитесь управлять транзакциями на сервере MySQL, сможете создавать хранимые процедуры и триггеры, научитесь эффективно использовать хранилища («движки») сервера MYSQL. Этот курс необходим любому разработчику сайтов.

Курс предназначен для веб-разработчиков и веб-мастеров, которые планируют использовать сервер MySQL в своей практике. Особенно курс будет интересен специалистам, использующим PHP и Perl.

Продолжительность: 16:23:45
Качество видео: DVDRip

Видео: MPEG-4, 1120x700, 936x696, 664x500, 848x640, 1040x584, 920x684, ~~468-646kbps
Аудио: MP3, 2 ch, 192kbps

Mediainfo:

Код:

Общее
Полное имя                               : D:\видеоуроки\MySQL\1d\1-1.avi
Формат                                   : AVI
Формат/Информация                        : Audio Video Interleave
Размер файла                             : 356 Мбайт
Продолжительность                        : 1 ч. 46 м.
Общий поток                              : 468 Кбит/сек
Программа кодирования                    : BandiAviMuxer 1.0

Видео
Идентификатор                            : 0
Формат                                   : MPEG-4 Visual
Профиль формата                          : Simple@L1
Параметр BVOP формата                    : Да
Параметр QPel формата                    : Нет
Параметр GMC формата                     : Без точки перехода
Параметр матрицы формата                 : Default (H.263)
Идентификатор кодека                     : XVID
Идентификатор кодека/Подсказка           : XviD
Продолжительность                        : 1 ч. 46 м.
Битрейт                                  : 262 Кбит/сек
Ширина                                   : 848 пикселей
Высота                                   : 640 пикселей
Соотношение сторон                       : 4:3
Частота кадров                           : 30,000 кадров/сек
Цветовое пространство                    : YUV
Субдискретизация насыщенности            : 4:2:0
Битовая глубина                          : 8 бит
Тип развёртки                            : Прогрессивная
Метод сжатия                             : С потерями
Бит/(Пиксели*Кадры)                      : 0.016
Размер потока                            : 199 Мбайт (56%)

Аудио
Идентификатор                            : 1
Формат                                   : MPEG Audio
Версия формата                           : Version 1
Профиль формата                          : Layer 2
Идентификатор кодека                     : 50
Продолжительность                        : 1 ч. 46 м.
Вид битрейта                             : Постоянный
Битрейт                                  : 192 Кбит/сек
Каналы                                   : 2 канала
Частота                                  : 48,0 КГц
Метод сжатия                             : С потерями
Размер потока                            : 146 Мбайт (41%)
Выравнивание                             : Соединение по промежуткам
Продолжительность промежутка             : 24  мс. (0,72 видеокадр)
Время предзагрузки промежутка            : 24  мс.

По окончании курса Вы будете уметь::

Устанавливать и настраивать сервер MySQL 5
Проектировать и создавать эффективные базы данных на сервере MySQL5
Манипулировать данными на сервере MySQL 5, эффективно используя язык SQL
Использовать хранимые процедуры и триггеры в базах данных
Использовать и управлять транзакциями
Осуществлять резервное копирование информации и восстановление после аварийного сбоя
Оптимизировать запросы и конфигурацию сервера для более эффективной работы
И, наконец, слушатели узнают, как зовут дельфина на логотипе MySQL5
Скриншоты:


Смотреть Online

http://moonwalk.cc/video/5b66ec8f98b8dc5d3a1db4c49510f331/iframe
Детали торрента:
Название:Специалист | MySQL 5. Проектирование и создание баз данных для web (2015) DVDRip
Дата добавления:11 Апр 2016 10:47:21
Размер:3,53 GB
Раздают:23
Качают:2
Форум:Компьютеры

All rights reserved © 2015-2018