TORRENTS43.COM

Скачать Kenny Burrell - Blue Lights, Volume 1 (1958) Remaster, 2000, Toshiba[FLAC|Lossless|tracks + .cue] <Mainstream Jazz, Bop, Guitar Jazz>


Kenny Burrell - Blue Lights, Volume 1 (1958) Remaster, 2000, Toshiba
Год: 2000
Год записи: 1958
Жанр: Mainstream Jazz, Bop, Guitar Jazz
Издание: Blue Note / Toshiba - TOCJ-9183
Продолжительность: 00:34:54

Кодек: FLAC (tracks+.cue)
Битрейт: Lossless
Источник (релизер): measet
Страна-производитель диска: Japan
Наличие сканов в содержимом раздачи: да

Треклист:

01.Yes Baby [11:09]
02.Scotch Blues [08:01]
03.Autumn In New York [05:48]
04.Caravan [09:58]

Отчёт EAC:

Код:

Exact Audio Copy V1.1 from 23. June 2015

EAC extraction logfile from 25. March 2016, 14:58

Kenny Burrell / Blue Lights Volume 1

Used drive  : HL-DT-STDVD+-RW GS30N   Adapter: 1  ID: 0

Read mode               : Secure
Utilize accurate stream : Yes
Defeat audio cache      : Yes
Make use of C2 pointers : No

Read offset correction                      : 667
Overread into Lead-In and Lead-Out          : No
Fill up missing offset samples with silence : Yes
Delete leading and trailing silent blocks   : No
Null samples used in CRC calculations       : Yes
Used interface                              : Native Win32 interface for Win NT & 2000
Gap handling                                : Appended to previous track

Used output format              : User Defined Encoder
Selected bitrate                : 1024 kBit/s
Quality                         : High
Add ID3 tag                     : No
Command line compressor         : C:\Program Files (x86)\Exact Audio Copy\FLAC\FLAC.EXE
Additional command line options : -6 -V -T "ARTIST=%artist%" -T "TITLE=%title%" -T "ALBUM=%albumtitle%" -T "DATE=%year%" -T "TRACKNUMBER=%tracknr%" -T "GENRE=%genre%" -T "COMMENT=%comment%" -T "BAND=%albuminterpret%" -T "ALBUMARTIST=%albuminterpret%" -T "COMPOSER=%composer%" %haslyrics%--tag-from-file=LYRICS="%lyricsfile%"%haslyrics% -T "DISCNUMBER=%cdnumber%" -T "TOTALDISCS=%totalcds%" -T "TOTALTRACKS=%numtracks%" %hascover%--picture="%coverfile%"%hascover% %source% -o %dest%

TOC of the extracted CD

     Track |   Start  |  Length  | Start sector | End sector
    ---------------------------------------------------------
        1  |  0:00.00 | 11:08.24 |         0    |    50123
        2  | 11:08.24 |  8:00.63 |     50124    |    86186
        3  | 19:09.12 |  5:47.24 |     86187    |   112235
        4  | 24:56.36 |  9:57.24 |    112236    |   157034

Track  1

     Filename D:\music\Kenny Burrell - Blue Lights, Volume 1\01. Kenny Burrell - Yes Baby.wav

     Pre-gap length  0:00:02.00

     Peak level 97.9 %
     Extraction speed 3.2 X
     Track quality 99.9 %
     Test CRC 19A5E239
     Copy CRC 19A5E239
     Accurately ripped (confidence 3)  [F70DB93E]  (AR v2)
     Copy OK

Track  2

     Filename D:\music\Kenny Burrell - Blue Lights, Volume 1\02. Kenny Burrell - Scotch Blues.wav

     Pre-gap length  0:00:02.11

     Peak level 97.9 %
     Extraction speed 4.0 X
     Track quality 100.0 %
     Test CRC 66EE239F
     Copy CRC 66EE239F
     Accurately ripped (confidence 3)  [D7AB034F]  (AR v2)
     Copy OK

Track  3

     Filename D:\music\Kenny Burrell - Blue Lights, Volume 1\03. Kenny Burrell - Autumn In New York.wav

     Pre-gap length  0:00:04.07

     Peak level 88.8 %
     Extraction speed 4.3 X
     Track quality 100.0 %
     Test CRC EFC035E0
     Copy CRC EFC035E0
     Accurately ripped (confidence 3)  [F9859D42]  (AR v2)
     Copy OK

Track  4

     Filename D:\music\Kenny Burrell - Blue Lights, Volume 1\04. Kenny Burrell - Caravan.wav

     Pre-gap length  0:00:03.28

     Peak level 97.9 %
     Extraction speed 4.6 X
     Track quality 99.9 %
     Test CRC 9EFBA6CB
     Copy CRC 9EFBA6CB
     Accurately ripped (confidence 3)  [003FC82D]  (AR v2)
     Copy OK

All tracks accurately ripped

No errors occurred

End of status report

---- CUETools DB Plugin V2.1.6

[CTDB TOCID: 4DmKSvzltFDvA0c0crWyCInli.Y-] found
Submit result: 4DmKSvzltFDvA0c0crWyCInli.Y- has been confirmed
Track | CTDB Status
  1   | (2/2) Accurately ripped
  2   | (2/2) Accurately ripped
  3   | (2/2) Accurately ripped
  4   | (2/2) Accurately ripped

==== Log checksum D27BBB116E48B508DE737F045704A4E75568E4B27158F52DCAC0BAF77448161B ====

Cue Sheet (.cue):

Код:

REM GENRE Jazz
REM DATE 1958
REM DISCID 2D082D04
REM COMMENT "ExactAudioCopy v1.1"
CATALOG 4988006772724
PERFORMER "Kenny Burrell"
TITLE "Blue Lights Volume 1"
FILE "01. Yes Baby.flac" WAVE
  TRACK 01 AUDIO
    TITLE "Yes Baby"
    PERFORMER "Kenny Burrell"
    ISRC USBN29900787
    INDEX 01 00:00:00
  TRACK 02 AUDIO
    TITLE "Scotch Blues"
    PERFORMER "Kenny Burrell"
    ISRC USBN29900788
    INDEX 00 11:06:13
FILE "02. Scotch Blues.flac" WAVE
    INDEX 01 00:00:00
  TRACK 03 AUDIO
    TITLE "Autumn In New York"
    PERFORMER "Kenny Burrell"
    ISRC USBN29900789
    INDEX 00 07:56:56
FILE "03. Autumn In New York.flac" WAVE
    INDEX 01 00:00:00
  TRACK 04 AUDIO
    TITLE "Caravan"
    PERFORMER "Kenny Burrell"
    ISRC USBN29900790
    INDEX 00 05:43:71
FILE "04. Caravan.flac" WAVE
    INDEX 01 00:00:00

Отчёт auCDtect Task manager:

Код:

-----------------------

DON'T MODIFY THIS FILE

-----------------------

PERFORMER: auCDtect Task Manager, ver. 1.6.0 RC1 build 1.6.0.1
Copyright (c) 2008-2010 y-soft. All rights reserved
http://y-soft.org

ANALYZER: auCDtect: CD records authenticity detector, version 0.8.2
Copyright (c) 2004 Oleg Berngardt. All rights reserved.
Copyright (c) 2004 Alexander Djourik. All rights reserved.

FILE: 04. Caravan.flac
  Size: 62209965 Hash: 2F01D26E7BFC6FD9A46AEA69C3E82128 Accuracy: -m0
  Conclusion: CDDA 100%
  Signature: FB1C23EA39ADF9D1152BE5EE2D2EC68316D65E53
FILE: 03. Autumn In New York.flac
  Size: 23073316 Hash: A18FA2B2F6025A09FC8706DEA94012EA Accuracy: -m0
  Conclusion: CDDA 100%
  Signature: 3749C35DF69F9A987F3E788A774C33CB8CE21756
FILE: 02. Scotch Blues.flac
  Size: 48737693 Hash: 98F2D9EA51CE64394869D8CA21504443 Accuracy: -m0
  Conclusion: CDDA 100%
  Signature: C3682CC1A429F0A508E8122E4252204F9D219C9B
FILE: 01. Yes Baby.flac
  Size: 62290034 Hash: F73739CD94B81ED48C86FF0F5EB2FFC6 Accuracy: -m0
  Conclusion: CDDA 100%
  Signature: 3B1F881079A73224B31F74FC20CE477E673955EF

Состав

Louis Smith - trumpet (1, 2, 4)
Junior Cook - tenor sax (1, 2, 4)
Tina Brooks - tenor sax (1, 2, 4)
Kenny Burrell - guitar
Duke Jordan - piano (1, 2)
Bobby Timmons - piano (3, 4)
Sam Jones - bass
Art Blakey - drums



Поглощение/вытеснение
Только с согласия релизера

pilligrim21

Детали торрента:
Название:Kenny Burrell - Blue Lights, Volume 1 (1958) Remaster, 2000, Toshiba[FLAC|Lossless|tracks + .cue] <Mainstream Jazz, Bop, Guitar Jazz>
Дата добавления:21 Апр 2016 15:43:44
Размер:213 MB
Раздают:1
Качают:0
Форум:Jazz (Lossless)

All rights reserved © 2015-2018