TORRENTS43.COM

Скачать VA - Eurovision Song Contest Stockholm 2016: Come Together (2016) 2CD [FLAC|Lossless|tracks + .cue] <Pop, Dance, Folk Pop, Pop Rock, Vocal>


VA - Eurovision Song Contest Stockholm 2016: Come Together (2016) 2CD
Год: 2016
Жанр: Pop, Eurodance, Folk Pop, Pop Rock, Chanson, Ballad, Swing, Vocal
Издание: Universal Music - 477 968 1
EAN/UPC: 0602547796813
Страна: EU
Продолжительность: 02:09:15
Кодек: FLAC
Битрейт: Lossless
Тип рипа: tracks + .cue

CD 1:

Продолжительноcть: 01:05:56
Треклист:

01. Eneda Tarifa - Fairytale (Albania) - 3:01
02. Iveta Mukuchyan - LoveWave (Armenia) - 2:58
03. Zoë - Loin d'ici (Austria) - 3:01
04. Dami Im - Sound Of Silence (Australia) - 3:05
05. Samra - Miracle (Azerbaijan) - 3:01
06. Dalal & Deen feat. Ana Rucner & Jala - Ljubav je... (Bosnia & Herzegovina) - 3:00
07. Laura Tesoro - What's The Pressure (Belgium) - 2:53
08. Poli Genova - If Love Was A Crime (Bulgaria) - 3:00
09. Ivan - Help You Fly (Belarus) - 3:03
10. Rykka - The Last Of Our Kind (Switzerland) - 3:01
11. Minus One - Alter Ego (Cyprus) - 3:02
12. Gabriela Gunčíková - I Stand (Czech Republic) - 3:00
13. Jamie-Lee - Ghost (Germany) - 2:56
14. Lighthouse X - Soldiers Of Love (Denmark) - 3:00
15. Jüri Pootsmann - Play (Estonia) - 3:01
16. Barei - Say Yay! (Spain) - 2:58
17. Sandhja - Sing It Away (Finland) - 3:00
18. Amir - J'ai cherché (France) - 3:02
19. Joe And Jake - You're Not Alone (United Kingdom) - 2:50
20. Nika Kocharov and Young Georgian Lolitaz - Midnight Gold (Georgia) - 2:56
21. Argo - Utopian Land (Greece) - 2:56
22. Nina Kraljić - Lighthouse (Croatia) - 3:00

Отчёт EAC:

Код:

Exact Audio Copy V1.1 from 23. June 2015

EAC extraction logfile from 23. April 2016, 13:56

Various Artists / Eurovision Song Contest 2016

Used drive  : PLEXTOR CD-R   PX-230A   Adapter: 1  ID: 0

Read mode               : Secure
Utilize accurate stream : Yes
Defeat audio cache      : Yes
Make use of C2 pointers : No

Read offset correction                      : 738
Overread into Lead-In and Lead-Out          : No
Fill up missing offset samples with silence : Yes
Delete leading and trailing silent blocks   : No
Null samples used in CRC calculations       : Yes
Used interface                              : Native Win32 interface for Win NT & 2000
Gap handling                                : Appended to previous track

Used output format              : User Defined Encoder
Selected bitrate                : 1024 kBit/s
Quality                         : High
Add ID3 tag                     : No
Command line compressor         : C:\Program Files\Exact Audio Copy\Flac\flac.exe
Additional command line options : -6 -V -T "ARTIST=%artist%" -T "TITLE=%title%" -T "ALBUM=%albumtitle%" -T "DATE=%year%" -T "TRACKNUMBER=%tracknr%" -T "GENRE=%genre%" -T "COMMENT=%comment%" -T "ALBUMARTIST=%albuminterpret%" -T "COMPOSER=%composer%" -T "DISCNUMBER=%cdnumber%" -T "TOTALDISCS=%totalcds%" -T "TOTALTRACKS=%numtracks%" %source% -o %dest%

TOC of the extracted CD

     Track |   Start  |  Length  | Start sector | End sector
    ---------------------------------------------------------
        1  |  0:00.00 |  3:01.12 |         0    |    13586
        2  |  3:01.12 |  2:58.47 |     13587    |    26983
        3  |  5:59.59 |  3:01.57 |     26984    |    40615
        4  |  9:01.41 |  3:05.18 |     40616    |    54508
        5  | 12:06.59 |  3:01.59 |     54509    |    68142
        6  | 15:08.43 |  3:00.63 |     68143    |    81705
        7  | 18:09.31 |  2:53.06 |     81706    |    94686
        8  | 21:02.37 |  3:00.07 |     94687    |   108193
        9  | 24:02.44 |  3:03.58 |    108194    |   121976
       10  | 27:06.27 |  3:01.61 |    121977    |   135612
       11  | 30:08.13 |  3:02.14 |    135613    |   149276
       12  | 33:10.27 |  3:00.59 |    149277    |   162835
       13  | 36:11.11 |  2:56.66 |    162836    |   176101
       14  | 39:08.02 |  3:00.65 |    176102    |   189666
       15  | 42:08.67 |  3:01.06 |    189667    |   203247
       16  | 45:09.73 |  2:58.12 |    203248    |   216609
       17  | 48:08.10 |  3:00.33 |    216610    |   230142
       18  | 51:08.43 |  3:02.12 |    230143    |   243804
       19  | 54:10.55 |  2:50.52 |    243805    |   256606
       20  | 57:01.32 |  2:56.53 |    256607    |   269859
       21  | 59:58.10 |  2:56.01 |    269860    |   283060
       22  | 62:54.11 |  3:00.39 |    283061    |   296599

Track  1

     Filename C:\Music\01 - Eneda Tarifa - Fairytale.wav

     Pre-gap length  0:00:02.00

     Peak level 99.4 %
     Extraction speed 4.2 X
     Track quality 100.0 %
     Test CRC 64C8C22E
     Copy CRC 64C8C22E
     Track not present in AccurateRip database
     Copy OK

Track  2

     Filename C:\Music\02 - Iveta Mukuchyan - LoveWave.wav

     Pre-gap length  0:00:00.45

     Peak level 99.4 %
     Extraction speed 3.9 X
     Track quality 99.9 %
     Test CRC D2F0875F
     Copy CRC D2F0875F
     Track not present in AccurateRip database
     Copy OK

Track  3

     Filename C:\Music\03 - Zoe - Loin d'ici.wav

     Pre-gap length  0:00:00.22

     Peak level 99.4 %
     Extraction speed 4.0 X
     Track quality 100.0 %
     Test CRC 1D94103A
     Copy CRC 1D94103A
     Track not present in AccurateRip database
     Copy OK

Track  4

     Filename C:\Music\04 - Dami Im - Sound Of Silence.wav

     Pre-gap length  0:00:00.57

     Peak level 99.5 %
     Extraction speed 3.9 X
     Track quality 99.9 %
     Test CRC 027D72F1
     Copy CRC 027D72F1
     Track not present in AccurateRip database
     Copy OK

Track  5

     Filename C:\Music\05 - Samra - Miracle.wav

     Pre-gap length  0:00:00.24

     Peak level 99.4 %
     Extraction speed 4.0 X
     Track quality 100.0 %
     Test CRC D3C10A36
     Copy CRC D3C10A36
     Track not present in AccurateRip database
     Copy OK

Track  6

     Filename C:\Music\06 - Dalal & Deen feat. Ana Rucner & Jala - Ljubav Je.wav

     Pre-gap length  0:00:00.57

     Peak level 99.4 %
     Extraction speed 3.7 X
     Track quality 100.0 %
     Test CRC 8B41785C
     Copy CRC 8B41785C
     Track not present in AccurateRip database
     Copy OK

Track  7

     Filename C:\Music\07 - Laura Tesoro - What's The Pressure.wav

     Pre-gap length  0:00:00.35

     Peak level 99.4 %
     Extraction speed 3.9 X
     Track quality 100.0 %
     Test CRC 3F2F0D4E
     Copy CRC 3F2F0D4E
     Track not present in AccurateRip database
     Copy OK

Track  8

     Filename C:\Music\08 - Poli Genova - If Love Was A Crime.wav

     Pre-gap length  0:00:00.39

     Peak level 99.4 %
     Extraction speed 4.2 X
     Track quality 100.0 %
     Test CRC 4A625383
     Copy CRC 4A625383
     Track not present in AccurateRip database
     Copy OK

Track  9

     Filename C:\Music\09 - Ivan - Help You Fly.wav

     Pre-gap length  0:00:00.45

     Peak level 96.7 %
     Extraction speed 3.8 X
     Track quality 100.0 %
     Test CRC 0134122E
     Copy CRC 0134122E
     Track not present in AccurateRip database
     Copy OK

Track 10

     Filename C:\Music\10 - Rykka - The Last Of Our Kind.wav

     Pre-gap length  0:00:00.37

     Peak level 99.4 %
     Extraction speed 3.9 X
     Track quality 100.0 %
     Test CRC 179C85A4
     Copy CRC 179C85A4
     Track not present in AccurateRip database
     Copy OK

Track 11

     Filename C:\Music\11 - Minus One - Alter Ego.wav

     Pre-gap length  0:00:01.32

     Peak level 88.2 %
     Extraction speed 4.4 X
     Track quality 100.0 %
     Test CRC D6E360D4
     Copy CRC D6E360D4
     Track not present in AccurateRip database
     Copy OK

Track 12

     Filename C:\Music\12 - Gabriela Guncikova - I Stand.wav

     Pre-gap length  0:00:00.19

     Peak level 99.4 %
     Extraction speed 4.7 X
     Track quality 100.0 %
     Test CRC 531D129A
     Copy CRC 531D129A
     Track not present in AccurateRip database
     Copy OK

Track 13

     Filename C:\Music\13 - Jamie-Lee Kriewitz - Ghost.wav

     Pre-gap length  0:00:00.53

     Peak level 100.0 %
     Extraction speed 4.1 X
     Track quality 100.0 %
     Test CRC 3EE78A1D
     Copy CRC 3EE78A1D
     Track not present in AccurateRip database
     Copy OK

Track 14

     Filename C:\Music\14 - Lighthouse X - Soldiers Of Love.wav

     Pre-gap length  0:00:01.04

     Peak level 100.0 %
     Extraction speed 4.2 X
     Track quality 100.0 %
     Test CRC C51D5965
     Copy CRC C51D5965
     Track not present in AccurateRip database
     Copy OK

Track 15

     Filename C:\Music\15 - Jueri Pootsmann - Play.wav

     Pre-gap length  0:00:00.41

     Peak level 99.4 %
     Extraction speed 3.9 X
     Track quality 100.0 %
     Test CRC 1727C125
     Copy CRC 1727C125
     Track not present in AccurateRip database
     Copy OK

Track 16

     Filename C:\Music\16 - Barei - Say Yay.wav

     Pre-gap length  0:00:00.58

     Peak level 99.4 %
     Extraction speed 4.0 X
     Track quality 100.0 %
     Test CRC 0AA9D6F6
     Copy CRC 0AA9D6F6
     Track not present in AccurateRip database
     Copy OK

Track 17

     Filename C:\Music\17 - Sandhja - Sing It Away.wav

     Pre-gap length  0:00:00.68

     Peak level 99.4 %
     Extraction speed 4.0 X
     Track quality 100.0 %
     Test CRC 2A931530
     Copy CRC 2A931530
     Track not present in AccurateRip database
     Copy OK

Track 18

     Filename C:\Music\18 - Amir - J'ai Cherché.wav

     Pre-gap length  0:00:00.60

     Peak level 99.5 %
     Extraction speed 4.2 X
     Track quality 100.0 %
     Test CRC 36F528F4
     Copy CRC 36F528F4
     Track not present in AccurateRip database
     Copy OK

Track 19

     Filename C:\Music\19 - Joe And Jake - You're Not Alone.wav

     Pre-gap length  0:00:00.28

     Peak level 98.2 %
     Extraction speed 3.7 X
     Track quality 100.0 %
     Test CRC 4470231D
     Copy CRC 4470231D
     Track not present in AccurateRip database
     Copy OK

Track 20

     Filename C:\Music\20 - Nika Kocharov & Young Georgian Lolitaz - Midnight Gold.wav

     Pre-gap length  0:00:00.46

     Peak level 99.4 %
     Extraction speed 4.2 X
     Track quality 100.0 %
     Test CRC DDF3858D
     Copy CRC DDF3858D
     Track not present in AccurateRip database
     Copy OK

Track 21

     Filename C:\Music\21 - Argo - Utopian Land.wav

     Pre-gap length  0:00:00.39

     Peak level 99.9 %
     Extraction speed 3.7 X
     Track quality 100.0 %
     Test CRC F004E212
     Copy CRC F004E212
     Track not present in AccurateRip database
     Copy OK

Track 22

     Filename C:\Music\22 - Nina Kraljic - Lighthouse.wav

     Pre-gap length  0:00:00.41

     Peak level 100.0 %
     Extraction speed 3.7 X
     Track quality 100.0 %
     Test CRC 79C19792
     Copy CRC 79C19792
     Track not present in AccurateRip database
     Copy OK

None of the tracks are present in the AccurateRip database

No errors occurred

End of status report

---- CUETools DB Plugin V2.1.6

[CTDB TOCID: Mf3.A6jeOl4pUD8Qir7nXiBdfXc-] found
Submit result: Mf3.A6jeOl4pUD8Qir7nXiBdfXc- has been confirmed
Track | CTDB Status
  1   | (2/2) Accurately ripped
  2   | (2/2) Accurately ripped
  3   | (2/2) Accurately ripped
  4   | (2/2) Accurately ripped
  5   | (2/2) Accurately ripped
  6   | (2/2) Accurately ripped
  7   | (2/2) Accurately ripped
  8   | (2/2) Accurately ripped
  9   | (2/2) Accurately ripped
 10   | (2/2) Accurately ripped
 11   | (2/2) Accurately ripped
 12   | (2/2) Accurately ripped
 13   | (2/2) Accurately ripped
 14   | (2/2) Accurately ripped
 15   | (2/2) Accurately ripped
 16   | (2/2) Accurately ripped
 17   | (2/2) Accurately ripped
 18   | (2/2) Accurately ripped
 19   | (2/2) Accurately ripped
 20   | (2/2) Accurately ripped
 21   | (2/2) Accurately ripped
 22   | (2/2) Accurately ripped

==== Log checksum 624DFC75495677FD31378EC07DA64F7A06922EEECA165354AAA13D565D97460B ====

Cue Sheet (.cue):

Код:

REM GENRE Pop
REM DATE 2016
REM DISCID 160F7216
REM COMMENT "ExactAudioCopy v1.1"
PERFORMER "Various Artists"
TITLE "Eurovision Song Contest 2016"
FILE "01 - Eneda Tarifa (Albania) - Fairytale.wav" WAVE
  TRACK 01 AUDIO
    TITLE "Fairytale"
    PERFORMER "Eneda Tarifa"
    INDEX 01 00:00:00
  TRACK 02 AUDIO
    TITLE "LoveWave"
    PERFORMER "Iveta Mukuchyan"
    INDEX 00 03:00:42
FILE "02 - Iveta Mukuchyan (Armenia) - LoveWave.wav" WAVE
    INDEX 01 00:00:00
  TRACK 03 AUDIO
    TITLE "Loin d'ici"
    PERFORMER "Zoe"
    INDEX 00 02:58:25
FILE "03 - Zoe (Austria) - Loin d'ici.wav" WAVE
    INDEX 01 00:00:00
  TRACK 04 AUDIO
    TITLE "Sound Of Silence"
    PERFORMER "Dami Im"
    INDEX 00 03:01:00
FILE "04 - Dami Im (Australia) - Sound Of Silence.wav" WAVE
    INDEX 01 00:00:00
  TRACK 05 AUDIO
    TITLE "Miracle"
    PERFORMER "Samra"
    INDEX 00 03:04:69
FILE "05 - Samra (Azerbaijan) - Miracle.wav" WAVE
    INDEX 01 00:00:00
  TRACK 06 AUDIO
    TITLE "Ljubav Je"
    PERFORMER "Dalal & Deen feat. Ana Rucner & Jala"
    INDEX 00 03:01:02
FILE "06 - Dalal & Deen feat. Ana Rucner & Jala (Bosnia & Herzegovina) - Ljubav Je.wav" WAVE
    INDEX 01 00:00:00
  TRACK 07 AUDIO
    TITLE "What's The Pressure"
    PERFORMER "Laura Tesoro"
    INDEX 00 03:00:28
FILE "07 - Laura Tesoro (Belgium) - What's The Pressure.wav" WAVE
    INDEX 01 00:00:00
  TRACK 08 AUDIO
    TITLE "If Love Was A Crime"
    PERFORMER "Poli Genova"
    INDEX 00 02:52:42
FILE "08 - Poli Genova (Bulgaria) - If Love Was A Crime.wav" WAVE
    INDEX 01 00:00:00
  TRACK 09 AUDIO
    TITLE "Help You Fly"
    PERFORMER "Ivan"
    INDEX 00 02:59:37
FILE "09 - IVAN (Belarus) - Help You Fly.wav" WAVE
    INDEX 01 00:00:00
  TRACK 10 AUDIO
    TITLE "The Last Of Our Kind"
    PERFORMER "Rykka"
    INDEX 00 03:03:21
FILE "10 - Rykka (Switzerland) - The Last Of Our Kind.wav" WAVE
    INDEX 01 00:00:00
  TRACK 11 AUDIO
    TITLE "Alter Ego"
    PERFORMER "Minus One"
    INDEX 00 03:00:29
FILE "11 - Minus One (Cyprus) - Alter Ego.wav" WAVE
    INDEX 01 00:00:00
  TRACK 12 AUDIO
    TITLE "I Stand"
    PERFORMER "Gabriela Guncikova"
    INDEX 00 03:01:70
FILE "12 - Gabriela Guncikova (Czech Republic) - I Stand.wav" WAVE
    INDEX 01 00:00:00
  TRACK 13 AUDIO
    TITLE "Ghost"
    PERFORMER "Jamie-Lee Kriewitz"
    INDEX 00 03:00:06
FILE "13 - Jamie-Lee (Germany) - Ghost.wav" WAVE
    INDEX 01 00:00:00
  TRACK 14 AUDIO
    TITLE "Soldiers Of Love"
    PERFORMER "Lighthouse X"
    INDEX 00 02:55:62
FILE "14 - Lighthouse X (Denmark) - Soldiers Of Love.wav" WAVE
    INDEX 01 00:00:00
  TRACK 15 AUDIO
    TITLE "Play"
    PERFORMER "Juri Pootsmann"
    INDEX 00 03:00:24
FILE "15 - Juri Pootsmann (Estonia) - Play.wav" WAVE
    INDEX 01 00:00:00
  TRACK 16 AUDIO
    TITLE "Say Yay"
    PERFORMER "Barei"
    INDEX 00 03:00:23
FILE "16 - Barei (Spain) - Say Yay.wav" WAVE
    INDEX 01 00:00:00
  TRACK 17 AUDIO
    TITLE "Sing It Away"
    PERFORMER "Sandhja"
    INDEX 00 02:57:19
FILE "17 - Sandhja (Finland) - Sing It Away.wav" WAVE
    INDEX 01 00:00:00
  TRACK 18 AUDIO
    TITLE "J'ai Cherche"
    PERFORMER "Amir"
    INDEX 00 02:59:48
FILE "18 - Amir (France) - J'ai Cherche.wav" WAVE
    INDEX 01 00:00:00
  TRACK 19 AUDIO
    TITLE "You're Not Alone"
    PERFORMER "Joe And Jake"
    INDEX 00 03:01:59
FILE "19 - Joe And Jake (United Kingdom) - You're Not Alone.wav" WAVE
    INDEX 01 00:00:00
  TRACK 20 AUDIO
    TITLE "Midnight Gold"
    PERFORMER "Nika Kocharov & Young Georgian Lolitaz"
    INDEX 00 02:50:06
FILE "20 - Nika Kocharov & Young Georgian Lolitaz (Georgia) - Midnight Gold.wav" WAVE
    INDEX 01 00:00:00
  TRACK 21 AUDIO
    TITLE "Utopian Land"
    PERFORMER "Argo"
    INDEX 00 02:56:14
FILE "21 - Argo (Greece) - Utopian Land.wav" WAVE
    INDEX 01 00:00:00
  TRACK 22 AUDIO
    TITLE "Lighthouse"
    PERFORMER "Nina Kraljic"
    INDEX 00 02:55:35
FILE "22 - Nina Kraljic (Croatia) - Lighthouse.wav" WAVE
    INDEX 01 00:00:00

Отчёт auCDtect Task manager:

Код:

PERFORMER: auCDtect Task Manager, ver. 1.6.0 RC1 build 1.6.0.1
Copyright (c) 2008-2010 y-soft. All rights reserved
http://y-soft.org

ANALYZER: auCDtect: CD records authenticity detector, version 0.8.2
Copyright (c) 2004 Oleg Berngardt. All rights reserved.
Copyright (c) 2004 Alexander Djourik. All rights reserved.

FILE: 22 - Nina Kraljic (Croatia) - Lighthouse.flac
  Size: 23534842 Hash: 67CDC5CA00A93AB199A0B4C46F55C4B6 Accuracy: -m0
  Conclusion: CDDA 99%
  Signature: 9259F93624346C092BADE25865265CBF6E8774F6
FILE: 21 - Argo (Greece) - Utopian Land.flac
  Size: 22364912 Hash: 9F0EA021B4A08EA6C68486E04C8BBE4B Accuracy: -m0
  Conclusion: CDDA 100%
  Signature: 3C6F8AF3E484A22C41E94833710715193CD233EB
FILE: 20 - Nika Kocharov & Young Georgian Lolitaz (Georgia) - Midnight Gold.flac
  Size: 23945259 Hash: 59C6C026A49283AF36B043531D09EC6F Accuracy: -m0
  Conclusion: CDDA 100%
  Signature: 16DFEE0ECFE3F6AA86CDA2A64B53C63F58A39DB7
FILE: 19 - Joe And Jake (United Kingdom) - You're Not Alone.flac
  Size: 21039534 Hash: 50D61314E6124B6A2BA9C138F135987C Accuracy: -m0
  Conclusion: CDDA 100%
  Signature: 3D95212D20C242D884248A88CA880219CDEBC3C9
FILE: 18 - Amir (France) - J'ai Cherche.flac
  Size: 24090501 Hash: 1E39D4353979ED5C3009223EAC48ECBE Accuracy: -m0
  Conclusion: CDDA 99%
  Signature: CF9DE0DC0F6FF06DC6145065504A260EEF9D7721
FILE: 17 - Sandhja (Finland) - Sing It Away.flac
  Size: 22023768 Hash: 2BA21D5A1D8B149B60C62DB242BE1BCD Accuracy: -m0
  Conclusion: CDDA 100%
  Signature: 268A1E03F5E717A159394001CB145E7B4DB4DEB4
FILE: 16 - Barei (Spain) - Say Yay.flac
  Size: 23226576 Hash: 953DC8791D2F59F576A1C359DCC04A4B Accuracy: -m0
  Conclusion: CDDA 100%
  Signature: B6167F7D5D9CB5147F0B049611D3A5937C325390
FILE: 15 - Juri Pootsmann (Estonia) - Play.flac
  Size: 19284341 Hash: 8EBE48054626275C1D2408A5AB8280AC Accuracy: -m0
  Conclusion: CDDA 100%
  Signature: FAAE63B38F00BBB6BE59A48BCF3AAB8E212E39D9
FILE: 14 - Lighthouse X (Denmark) - Soldiers Of Love.flac
  Size: 22654222 Hash: BE4CE7EF472F3BEBA48CB5E6CF83B383 Accuracy: -m0
  Conclusion: CDDA 100%
  Signature: 211798B8E1E1583B67AE27580918EEEDFE60C1C5
FILE: 13 - Jamie-Lee (Germany) - Ghost.flac
  Size: 19835360 Hash: 8E1A227A574E92FA571B152AE62BE2EE Accuracy: -m0
  Conclusion: CDDA 100%
  Signature: EEABA18A6F989640429A6F15A3B9DCC99B93E561
FILE: 12 - Gabriela Guncikova (Czech Republic) - I Stand.flac
  Size: 21925181 Hash: 54E5E642472C250D7C21450574DEC2EA Accuracy: -m0
  Conclusion: CDDA 100%
  Signature: 42E22980722EA78C23FDD48FAE4C2B8DB716AA95
FILE: 11 - Minus One (Cyprus) - Alter Ego.flac
  Size: 24052915 Hash: F0DF9E36684782E87C1ADC6BA0A393F6 Accuracy: -m0
  Conclusion: CDDA 100%
  Signature: 079CC24276A269778320A573926D543354DCF393
FILE: 10 - Rykka (Switzerland) - The Last Of Our Kind.flac
  Size: 22009558 Hash: 2568B1936BEB65526DFC9D271F9F9D4B Accuracy: -m0
  Conclusion: CDDA 100%
  Signature: 17012C05ACE398CE55C85CC0D9C20378DF8E8F32
FILE: 09 - IVAN (Belarus) - Help You Fly.flac
  Size: 23747002 Hash: 51DB42DDC5A1C5E709300A35A67A9E6E Accuracy: -m0
  Conclusion: CDDA 100%
  Signature: 2995CBB2C3D200ED6E6CF09F2B1F29E241493AC9
FILE: 08 - Poli Genova (Bulgaria) - If Love Was A Crime.flac
  Size: 23076299 Hash: A6371FD559063A03C6834C72EE1E4638 Accuracy: -m0
  Conclusion: CDDA 100%
  Signature: FC28473D1BBFC7297360F9822FE25672C95EBED2
FILE: 07 - Laura Tesoro (Belgium) - What's The Pressure.flac
  Size: 23685844 Hash: 3B829CC277CADE0C7CDA750A95B5460C Accuracy: -m0
  Conclusion: CDDA 100%
  Signature: 792E8DD684E18B15F354F88F07AB54B284061B6B
FILE: 06 - Dalal & Deen feat. Ana Rucner & Jala (Bosnia & Herzegovina) - Ljubav Je.flac
  Size: 22460071 Hash: 021C536EED3213AAD710546E8531DB1C Accuracy: -m0
  Conclusion: CDDA 100%
  Signature: 7354D1A96C9105354090EEE225B8C96F3D1422B6
FILE: 05 - Samra (Azerbaijan) - Miracle.flac
  Size: 24140538 Hash: D180E0A3023CE01DA186AEB1B3FA9C79 Accuracy: -m0
  Conclusion: CDDA 100%
  Signature: 8780A9F523F2BE4A21F58A1EDE5E033CA03D7DC4
FILE: 04 - Dami Im (Australia) - Sound Of Silence.flac
  Size: 21356093 Hash: B8D622696247DDF2FF13E357281DDE98 Accuracy: -m0
  Conclusion: CDDA 100%
  Signature: 9BD2A6A6165A16A1B3D5908749258799D9D4FD6F
FILE: 03 - Zoe (Austria) - Loin d'ici.flac
  Size: 22392161 Hash: DAE214F2B6C35EB03331B37EC2F63848 Accuracy: -m0
  Conclusion: CDDA 100%
  Signature: 11E49ACCF95FDFBA97658250A78FFCC2D17E8155
FILE: 02 - Iveta Mukuchyan (Armenia) - LoveWave.flac
  Size: 19890241 Hash: 9D8C7C685ACC49B267566C57D9880CEF Accuracy: -m0
  Conclusion: CDDA 100%
  Signature: 440BD22771434EB42E1B60AC2E03D06E82B2714F
FILE: 01 - Eneda Tarifa (Albania) - Fairytale.flac
  Size: 21643811 Hash: 108C4285DC88D326781D82863EC0D401 Accuracy: -m0
  Conclusion: CDDA 100%
  Signature: 2F8223A086C34D561506CC0E89448B1CD88F2667

CD 2:

Продолжительноcть: 01:03:19
Треклиcт:

01. Freddie - Pioneer (Hungary) - 3:00
02. Nicky Byrne - Sunlight (Ireland) - 3:00
03. Hovi Star - Made Of Stars (Israel) - 3:01
04. Greta Salóme - Hear Them Calling (Iceland) - 2:57
05. Francesca Michielin - No Degree Of Separation (Italy) - 3:09
06. Donny Montell - I've Been Waiting For This Night (Lithuania) - 3:03
07. Justs - Heartbeat (Latvia) - 2:58
08. Lidia Isac - Falling Stars (Moldova) - 2:58
09. Highway - The Real Thing (Montenegro) - 3:02
10. Kaliopi - Dona (F.Y.R. Macedonia) - 3:01
11. Ira Losco - Walk On Water (Malta) - 3:04
12. Douwe Bob - Slow Down (The Netherlands) - 2:45
13. Agnete - Icebreaker (Norway) - 2:54
14. Michał Szpak - Color Of Your Life (Poland) - 3:01
15. Ovidiu Anton - Moment Of Silence (Romania) - 3:01
16. Zaa Sanja Vučič - Goodbye (Shelter) (Serbia) - 3:05
17. Sergey Lazarev - You Are The Only One (Russia) - 3:07
18. Frans - If I Were Sorry (Sweden) - 3:05
19. ManuElla - Blue And Red (Slovenia) - 2:58
20. Serhat - I Didn't Know (San Marino) - 3:02
21. Jamala - 1944 (Ukraine) - 3:01

Отчёт EAC:

Код:

Exact Audio Copy V1.1 from 23. June 2015

EAC extraction logfile from 23. April 2016, 14:37

Various Artists / Eurovision Song Contest 2016

Used drive  : PLEXTOR CD-R   PX-230A   Adapter: 1  ID: 0

Read mode               : Secure
Utilize accurate stream : Yes
Defeat audio cache      : Yes
Make use of C2 pointers : No

Read offset correction                      : 738
Overread into Lead-In and Lead-Out          : No
Fill up missing offset samples with silence : Yes
Delete leading and trailing silent blocks   : No
Null samples used in CRC calculations       : Yes
Used interface                              : Native Win32 interface for Win NT & 2000
Gap handling                                : Appended to previous track

Used output format              : User Defined Encoder
Selected bitrate                : 1024 kBit/s
Quality                         : High
Add ID3 tag                     : No
Command line compressor         : C:\Program Files\Exact Audio Copy\Flac\flac.exe
Additional command line options : -6 -V -T "ARTIST=%artist%" -T "TITLE=%title%" -T "ALBUM=%albumtitle%" -T "DATE=%year%" -T "TRACKNUMBER=%tracknr%" -T "GENRE=%genre%" -T "COMMENT=%comment%" -T "ALBUMARTIST=%albuminterpret%" -T "COMPOSER=%composer%" -T "DISCNUMBER=%cdnumber%" -T "TOTALDISCS=%totalcds%" -T "TOTALTRACKS=%numtracks%" %source% -o %dest%

TOC of the extracted CD

     Track |   Start  |  Length  | Start sector | End sector
    ---------------------------------------------------------
        1  |  0:00.00 |  3:00.17 |         0    |    13516
        2  |  3:00.17 |  3:00.49 |     13517    |    27065
        3  |  6:00.66 |  3:01.61 |     27066    |    40701
        4  |  9:02.52 |  2:57.65 |     40702    |    54041
        5  | 12:00.42 |  3:09.12 |     54042    |    68228
        6  | 15:09.54 |  3:03.66 |     68229    |    82019
        7  | 18:13.45 |  2:58.23 |     82020    |    95392
        8  | 21:11.68 |  2:58.23 |     95393    |   108765
        9  | 24:10.16 |  3:02.21 |    108766    |   122436
       10  | 27:12.37 |  3:01.52 |    122437    |   136063
       11  | 30:14.14 |  3:04.02 |    136064    |   149865
       12  | 33:18.16 |  2:45.49 |    149866    |   162289
       13  | 36:03.65 |  2:54.45 |    162290    |   175384
       14  | 38:58.35 |  3:01.33 |    175385    |   188992
       15  | 41:59.68 |  3:01.24 |    188993    |   202591
       16  | 45:01.17 |  3:05.09 |    202592    |   216475
       17  | 48:06.26 |  3:07.32 |    216476    |   230532
       18  | 51:13.58 |  3:05.00 |    230533    |   244407
       19  | 54:18.58 |  2:58.21 |    244408    |   257778
       20  | 57:17.04 |  3:02.07 |    257779    |   271435
       21  | 60:19.11 |  3:01.05 |    271436    |   285015

Track  1

     Filename C:\Music\01 - Freddie - Pioneer.wav

     Pre-gap length  0:00:02.00

     Peak level 100.0 %
     Extraction speed 2.8 X
     Track quality 99.9 %
     Test CRC 6CA9B315
     Copy CRC 6CA9B315
     Track not present in AccurateRip database
     Copy OK

Track  2

     Filename C:\Music\02 - Nicky Byrne - Sunlight.wav

     Pre-gap length  0:00:00.31

     Peak level 100.0 %
     Extraction speed 3.1 X
     Track quality 100.0 %
     Test CRC 5BC54DB7
     Copy CRC 5BC54DB7
     Track not present in AccurateRip database
     Copy OK

Track  3

     Filename C:\Music\03 - Hovi Star - Made Of Stars.wav

     Pre-gap length  0:00:00.55

     Peak level 99.6 %
     Extraction speed 3.1 X
     Track quality 100.0 %
     Test CRC 562023CC
     Copy CRC 562023CC
     Track not present in AccurateRip database
     Copy OK

Track  4

     Filename C:\Music\04 - Greta Salome - Hear Them Calling.wav

     Pre-gap length  0:00:00.50

     Peak level 100.0 %
     Extraction speed 3.1 X
     Track quality 100.0 %
     Test CRC 531ABE7B
     Copy CRC 531ABE7B
     Track not present in AccurateRip database
     Copy OK

Track  5

     Filename C:\Music\05 - Francesca Michielin - No Degree Of Seperation.wav

     Pre-gap length  0:00:00.49

     Peak level 99.3 %
     Extraction speed 3.1 X
     Track quality 100.0 %
     Test CRC 8DC80C32
     Copy CRC 8DC80C32
     Track not present in AccurateRip database
     Copy OK

Track  6

     Filename C:\Music\06 - Donny Montell - I've Been Waiting For This Night.wav

     Pre-gap length  0:00:00.67

     Peak level 100.0 %
     Extraction speed 3.1 X
     Track quality 100.0 %
     Test CRC 23F81DB4
     Copy CRC 23F81DB4
     Track not present in AccurateRip database
     Copy OK

Track  7

     Filename C:\Music\07 - Justs - Heartbeat.wav

     Pre-gap length  0:00:00.41

     Peak level 99.4 %
     Extraction speed 2.9 X
     Track quality 99.9 %
     Test CRC 6A7587E2
     Copy CRC 6A7587E2
     Track not present in AccurateRip database
     Copy OK

Track  8

     Filename C:\Music\08 - Lidia Isac - Falling Stars.wav

     Pre-gap length  0:00:00.49

     Peak level 100.0 %
     Extraction speed 2.9 X
     Track quality 99.9 %
     Test CRC DA90C477
     Copy CRC DA90C477
     Track not present in AccurateRip database
     Copy OK

Track  9

     Filename C:\Music\09 - Highway - The Real Thing.wav

     Pre-gap length  0:00:00.51

     Peak level 100.0 %
     Extraction speed 2.8 X
     Track quality 99.9 %
     Test CRC 5AD5CF51
     Copy CRC 5AD5CF51
     Track not present in AccurateRip database
     Copy OK

Track 10

     Filename C:\Music\10 - Kaliopi - Dona.wav

     Pre-gap length  0:00:00.62

     Peak level 95.7 %
     Extraction speed 3.2 X
     Track quality 100.0 %
     Test CRC 0ECEDBAB
     Copy CRC 0ECEDBAB
     Track not present in AccurateRip database
     Copy OK

Track 11

     Filename C:\Music\11 - Ira Losco - Walk On Water.wav

     Pre-gap length  0:00:00.31

     Peak level 100.0 %
     Extraction speed 3.2 X
     Track quality 100.0 %
     Test CRC BD1486D0
     Copy CRC BD1486D0
     Track not present in AccurateRip database
     Copy OK

Track 12

     Filename C:\Music\12 - Douwe Bob - Slow Down.wav

     Pre-gap length  0:00:00.15

     Peak level 99.9 %
     Extraction speed 2.8 X
     Track quality 99.9 %
     Test CRC A2545E2B
     Copy CRC A2545E2B
     Track not present in AccurateRip database
     Copy OK

Track 13

     Filename C:\Music\13 - Agnete - Icebreaker.wav

     Pre-gap length  0:00:00.06

     Peak level 100.0 %
     Extraction speed 3.2 X
     Track quality 99.9 %
     Test CRC B108A7B5
     Copy CRC B108A7B5
     Track not present in AccurateRip database
     Copy OK

Track 14

     Filename C:\Music\14 - Michal Szpak - Color Of Your Life.wav

     Pre-gap length  0:00:00.22

     Peak level 98.1 %
     Extraction speed 4.2 X
     Track quality 100.0 %
     Test CRC 0310411E
     Copy CRC 0310411E
     Track not present in AccurateRip database
     Copy OK

Track 15

     Filename C:\Music\15 - Ovidiu Anton - Moment Of Silence.wav

     Pre-gap length  0:00:00.37

     Peak level 99.1 %
     Extraction speed 3.7 X
     Track quality 100.0 %
     Test CRC E4F38382
     Copy CRC E4F38382
     Track not present in AccurateRip database
     Copy OK

Track 16

     Filename C:\Music\16 - ZAA Sanja Vucic - Goodbye (Shelter).wav

     Pre-gap length  0:00:01.24

     Peak level 100.0 %
     Extraction speed 3.9 X
     Track quality 100.0 %
     Test CRC DC5B402E
     Copy CRC DC5B402E
     Track not present in AccurateRip database
     Copy OK

Track 17

     Filename C:\Music\17 - Sergey Lazarev - You Are The Only One.wav

     Pre-gap length  0:00:01.09

     Peak level 100.0 %
     Extraction speed 3.9 X
     Track quality 100.0 %
     Test CRC 02B0091B
     Copy CRC 02B0091B
     Track not present in AccurateRip database
     Copy OK

Track 18

     Filename C:\Music\18 - Frans - If I Were Sorry.wav

     Pre-gap length  0:00:00.35

     Peak level 100.0 %
     Extraction speed 3.9 X
     Track quality 100.0 %
     Test CRC 49F2D88D
     Copy CRC 49F2D88D
     Track not present in AccurateRip database
     Copy OK

Track 19

     Filename C:\Music\19 - ManuElla - Blue And Red.wav

     Pre-gap length  0:00:00.47

     Peak level 100.0 %
     Extraction speed 3.7 X
     Track quality 99.9 %
     Test CRC D6C8EBA8
     Copy CRC D6C8EBA8
     Track not present in AccurateRip database
     Copy OK

Track 20

     Filename C:\Music\20 - Serhat - I Didn't Know.wav

     Pre-gap length  0:00:00.21

     Peak level 100.0 %
     Extraction speed 4.2 X
     Track quality 100.0 %
     Test CRC A34532BE
     Copy CRC A34532BE
     Track not present in AccurateRip database
     Copy OK

Track 21

     Filename C:\Music\21 - Jamala - 1944.wav

     Pre-gap length  0:00:00.40

     Peak level 97.5 %
     Extraction speed 3.9 X
     Track quality 100.0 %
     Test CRC CBE763E2
     Copy CRC CBE763E2
     Track not present in AccurateRip database
     Copy OK

None of the tracks are present in the AccurateRip database

No errors occurred

End of status report

---- CUETools DB Plugin V2.1.6

[CTDB TOCID: 3gFoRG87KkG1DWaZN4nJkXtPFYI-] found
Submit result: 3gFoRG87KkG1DWaZN4nJkXtPFYI- has been confirmed
Track | CTDB Status
  1   | (2/2) Accurately ripped
  2   | (2/2) Accurately ripped
  3   | (2/2) Accurately ripped
  4   | (2/2) Accurately ripped
  5   | (2/2) Accurately ripped
  6   | (2/2) Accurately ripped
  7   | (2/2) Accurately ripped
  8   | (2/2) Accurately ripped
  9   | (2/2) Accurately ripped
 10   | (2/2) Accurately ripped
 11   | (2/2) Accurately ripped
 12   | (2/2) Accurately ripped
 13   | (2/2) Accurately ripped
 14   | (2/2) Accurately ripped
 15   | (2/2) Accurately ripped
 16   | (2/2) Accurately ripped
 17   | (2/2) Accurately ripped
 18   | (2/2) Accurately ripped
 19   | (2/2) Accurately ripped
 20   | (2/2) Accurately ripped
 21   | (2/2) Accurately ripped

==== Log checksum 0896B90DC91D1A9267299D0C677B2902F064B9DB8B0280ABA45067D05CE17243 ====

Cue Sheet (.cue):

Код:

REM GENRE Pop
REM DATE 2016
REM DISCID 040ED815
REM COMMENT "ExactAudioCopy v1.1"
PERFORMER "Various Artists"
TITLE "Eurovision Song Contest 2016"
FILE "01 - Freddie (Hungary) - Pioneer.wav" WAVE
  TRACK 01 AUDIO
    TITLE "Pioneer"
    PERFORMER "Freddie"
    INDEX 01 00:00:00
  TRACK 02 AUDIO
    TITLE "Sunlight"
    PERFORMER "Nicky Byrne"
    INDEX 00 02:59:61
FILE "02 - Nicky Byrne (Ireland) - Sunlight.wav" WAVE
    INDEX 01 00:00:00
  TRACK 03 AUDIO
    TITLE "Made Of Stars"
    PERFORMER "Hovi Star"
    INDEX 00 02:59:69
FILE "03 - Hovi Star (Israel) - Made Of Stars.wav" WAVE
    INDEX 01 00:00:00
  TRACK 04 AUDIO
    TITLE "Hear Them Calling"
    PERFORMER "Greta Salome"
    INDEX 00 03:01:11
FILE "04 - Greta Salome (Iceland) - Hear Them Calling.wav" WAVE
    INDEX 01 00:00:00
  TRACK 05 AUDIO
    TITLE "No Degree Of Seperation"
    PERFORMER "Francesca Michielin"
    INDEX 00 02:57:16
FILE "05 - Francesca Michielin (Italy) - No Degree Of Seperation.wav" WAVE
    INDEX 01 00:00:00
  TRACK 06 AUDIO
    TITLE "I've Been Waiting For This Night"
    PERFORMER "Donny Montell"
    INDEX 00 03:08:20
FILE "06 - Donny Montell (Lithuania) - I've Been Waiting For This Night.wav" WAVE
    INDEX 01 00:00:00
  TRACK 07 AUDIO
    TITLE "Heartbeat"
    PERFORMER "Justs"
    INDEX 00 03:03:25
FILE "07 - Justs (Latvia) - Heartbeat.wav" WAVE
    INDEX 01 00:00:00
  TRACK 08 AUDIO
    TITLE "Falling Stars"
    PERFORMER "Lidia Isac"
    INDEX 00 02:57:49
FILE "08 - Lidia Isac (Moldova) - Falling Stars.wav" WAVE
    INDEX 01 00:00:00
  TRACK 09 AUDIO
    TITLE "The Real Thing"
    PERFORMER "Highway"
    INDEX 00 02:57:47
FILE "09 - Highway (Montenegro) - The Real Thing.wav" WAVE
    INDEX 01 00:00:00
  TRACK 10 AUDIO
    TITLE "Dona"
    PERFORMER "Kaliopi"
    INDEX 00 03:01:34
FILE "10 - Kaliopi (F.Y.R. Macedonia) - Dona.wav" WAVE
    INDEX 01 00:00:00
  TRACK 11 AUDIO
    TITLE "Walk On Water"
    PERFORMER "Ira Losco"
    INDEX 00 03:01:21
FILE "11 - Ira Losco (Malta) - Walk On Water.wav" WAVE
    INDEX 01 00:00:00
  TRACK 12 AUDIO
    TITLE "Slow Down"
    PERFORMER "Douwe Bob"
    INDEX 00 03:03:62
FILE "12 - Douwe Bob (The Netherlands) - Slow Down.wav" WAVE
    INDEX 01 00:00:00
  TRACK 13 AUDIO
    TITLE "Icebreaker"
    PERFORMER "Agnete"
    INDEX 00 02:45:43
FILE "13 - Agnete (Norway) - Icebreaker.wav" WAVE
    INDEX 01 00:00:00
  TRACK 14 AUDIO
    TITLE "Color Of Your Life"
    PERFORMER "Michal Szpak"
    INDEX 00 02:54:23
FILE "14 - Michal Szpak (Poland) - Color Of Your Life.wav" WAVE
    INDEX 01 00:00:00
  TRACK 15 AUDIO
    TITLE "Moment Of Silence"
    PERFORMER "Ovidiu Anton"
    INDEX 00 03:00:71
FILE "15 - Ovidiu Anton (Romania) - Moment Of Silence.wav" WAVE
    INDEX 01 00:00:00
  TRACK 16 AUDIO
    TITLE "Goodbye (Shelter)"
    PERFORMER "ZAA Sanja Vucic"
    INDEX 00 03:00:00
FILE "16 - ZAA Sanja Vucic (Serbia) - Goodbye (Shelter).wav" WAVE
    INDEX 01 00:00:00
  TRACK 17 AUDIO
    TITLE "You Are The Only One"
    PERFORMER "Sergey Lazarev"
    INDEX 00 03:04:00
FILE "17 - Sergey Lazarev (Russia) - You Are The Only One.wav" WAVE
    INDEX 01 00:00:00
  TRACK 18 AUDIO
    TITLE "If I Were Sorry"
    PERFORMER "Frans"
    INDEX 00 03:06:72
FILE "18 - Frans (Sweden) - If I Were Sorry.wav" WAVE
    INDEX 01 00:00:00
  TRACK 19 AUDIO
    TITLE "Blue And Red"
    PERFORMER "ManuElla"
    INDEX 00 03:04:28
FILE "19 - ManuElla (Slovenia) - Blue And Red.wav" WAVE
    INDEX 01 00:00:00
  TRACK 20 AUDIO
    TITLE "I Didn't Know"
    PERFORMER "Serhat"
    INDEX 00 02:58:00
FILE "20 - Serhat (San Marino) - I Didn't Know.wav" WAVE
    INDEX 01 00:00:00
  TRACK 21 AUDIO
    TITLE "1944"
    PERFORMER "Jamala"
    INDEX 00 03:01:42
FILE "21 - Jamala (Ukraine) - 1944.wav" WAVE
    INDEX 01 00:00:00

Отчёт auCDtect Task manager:

Код:

PERFORMER: auCDtect Task Manager, ver. 1.6.0 RC1 build 1.6.0.1
Copyright (c) 2008-2010 y-soft. All rights reserved
http://y-soft.org

ANALYZER: auCDtect: CD records authenticity detector, version 0.8.2
Copyright (c) 2004 Oleg Berngardt. All rights reserved.
Copyright (c) 2004 Alexander Djourik. All rights reserved.

FILE: 21 - Jamala (Ukraine) - 1944.flac
  Size: 20356989 Hash: 8070207EC41597697136D221A0A01416 Accuracy: -m0
  Conclusion: CDDA 100%
  Signature: F04542790B9F0751E14333414D37C3E20A0C3E6E
FILE: 20 - Serhat (San Marino) - I Didn't Know.flac
  Size: 22511971 Hash: A099C443AF1E3091F79EA50FBEA7E55E Accuracy: -m0
  Conclusion: CDDA 100%
  Signature: 300710E895611FEB72A8D48BE9DD8CE2114448F9
FILE: 19 - ManuElla (Slovenia) - Blue And Red.flac
  Size: 22260667 Hash: 197C0E3C096244F4AC09A316549777D8 Accuracy: -m0
  Conclusion: CDDA 100%
  Signature: 8EA1D929CAF8B9EDBE48E1E8D82346E38348352C
FILE: 18 - Frans (Sweden) - If I Were Sorry.flac
  Size: 20925420 Hash: 0A251F2D1253C36057D49D177E8FDE66 Accuracy: -m0
  Conclusion: CDDA 100%
  Signature: 35C1021989D32859788AF018E99B9BDBC04EE2A8
FILE: 17 - Sergey Lazarev (Russia) - You Are The Only One.flac
  Size: 23527382 Hash: 9897356C37BE183D596FCBC307A1D643 Accuracy: -m0
  Conclusion: CDDA 100%
  Signature: 8985F3870247955C45C409BA9198C862EAB9A669
FILE: 16 - ZAA Sanja Vucic (Serbia) - Goodbye (Shelter).flac
  Size: 22753545 Hash: 2EC65B28F869A94A09C3CEFCDC7F49B2 Accuracy: -m0
  Conclusion: CDDA 100%
  Signature: 9D3806487B5C34A0BAB9C359D5E6C0947EC6A48D
FILE: 15 - Ovidiu Anton (Romania) - Moment Of Silence.flac
  Size: 24243341 Hash: A1AE5D79E26FCF2C144E8CDC6C94EF1D Accuracy: -m0
  Conclusion: CDDA 100%
  Signature: 82D9A9DE47AB87A4F01E7D4F260870F95CC43E04
FILE: 14 - Michal Szpak (Poland) - Color Of Your Life.flac
  Size: 23921523 Hash: 8C5429CB9FE08B6EF42058A83B29B07A Accuracy: -m0
  Conclusion: CDDA 100%
  Signature: 5E12B8D9546B74B4DDE4CE31FE15A3905F070D1E
FILE: 13 - Agnete (Norway) - Icebreaker.flac
  Size: 21781341 Hash: 4F4BABD4A59650A8840D036573FC5B75 Accuracy: -m0
  Conclusion: CDDA 100%
  Signature: A43FDEA64377747F9B2009DC68CC3897220CED4D
FILE: 12 - Douwe Bob (The Netherlands) - Slow Down.flac
  Size: 19523274 Hash: AD31CB180468ACAAF4BE675E7ABF20B4 Accuracy: -m0
  Conclusion: CDDA 100%
  Signature: 9DD40A793C63C5C1BEEC1A13BDE9DEDEF706D907
FILE: 11 - Ira Losco (Malta) - Walk On Water.flac
  Size: 23018658 Hash: 4D4FAF84F7B9B3B78E40742AF0D25351 Accuracy: -m0
  Conclusion: CDDA 100%
  Signature: 1B267EFB5D15BC477FBC052FC6DB72D0A76D69B1
FILE: 10 - Kaliopi (F.Y.R. Macedonia) - Dona.flac
  Size: 19866567 Hash: 1A1985E1B8F6D0F519B82E36A1A038CE Accuracy: -m0
  Conclusion: CDDA 100%
  Signature: 2A291C9DB3EDEAD15D0EDEE2031713F249E3A348
FILE: 09 - Highway (Montenegro) - The Real Thing.flac
  Size: 22848314 Hash: 1C038CCEFEBBC8CA3B274221D4E2F37B Accuracy: -m0
  Conclusion: CDDA 100%
  Signature: B1E8E07B404F52D479B7FA1453536C24C31455E4
FILE: 08 - Lidia Isac (Moldova) - Falling Stars.flac
  Size: 22927705 Hash: A41ABB511BEE89B6F53D2AF01FAF6E35 Accuracy: -m0
  Conclusion: CDDA 100%
  Signature: E66A2CC4B2808E2A1281BDE479DA34394B2935B5
FILE: 07 - Justs (Latvia) - Heartbeat.flac
  Size: 20806541 Hash: CF2D059215F04B3805D8FDFE33B2FF63 Accuracy: -m0
  Conclusion: CDDA 100%
  Signature: FB4E2A88B6B16BFC172445F623C683FD4913BA66
FILE: 06 - Donny Montell (Lithuania) - I've Been Waiting For This Night.flac
  Size: 23052026 Hash: 77497F53BEAE9C8A5489DCF790FF8D8E Accuracy: -m0
  Conclusion: CDDA 100%
  Signature: 2FF69643F0712A2ED481801C47E29D2247EAC4A3
FILE: 05 - Francesca Michielin (Italy) - No Degree Of Seperation.flac
  Size: 23614933 Hash: E0467D70BB1DDA83E3C0C008D6903185 Accuracy: -m0
  Conclusion: CDDA 100%
  Signature: 50918F94A91F163A4972F57C814F7AA86540CDD7
FILE: 04 - Greta Salome (Iceland) - Hear Them Calling.flac
  Size: 21195192 Hash: 99899D25BC6B0048DDC8F28A0158BD14 Accuracy: -m0
  Conclusion: CDDA 100%
  Signature: 3990A02ADFAA3643F038080E188C06F541756B9C
FILE: 03 - Hovi Star (Israel) - Made Of Stars.flac
  Size: 19413490 Hash: 27A55F4E0B4DE30C01FA1C6A8EA1A01D Accuracy: -m0
  Conclusion: CDDA 100%
  Signature: 911473F4792A9FD21FBAF7E8C4B6920F1D4A7648
FILE: 02 - Nicky Byrne (Ireland) - Sunlight.flac
  Size: 23760095 Hash: C095392CDEF3CF5CB7123719FAB9F38B Accuracy: -m0
  Conclusion: CDDA 100%
  Signature: 9028D6748FD9EB913351464F6499329AB5A93BDE
FILE: 01 - Freddie (Hungary) - Pioneer.flac
  Size: 22700995 Hash: BEA10789142561CAC2AC539FC92282F3 Accuracy: -m0
  Conclusion: CDDA 100%
  Signature: 36EC5DD78351AA804F9B03C8460B31CC8E327F90

Дополнительная информация:

61-й конкурс песни «Евровидение» состоится в Стокгольме (Швеция) в «Эрикссон-Глоб». «Эрикссон-Глоб» - это 85-метровая арена разного использования в столице и крупнейшем городе Швеции - Стокгольме, находящаяся в микрорайоне Глобен-Сити, созданном специально для неё, а также крупнейшее сферическое сооружение в мире, место проведения концертов и спортивных мероприятий. Арена может одновременно вместить 16 000 зрителей. Швеция стала страной-победительницей предыдущего конкурса «Евровидение 2015», прошедшего в Вене (Австрия) с песней «Heroes» в исполнении Монса Сельмерлёва, набравшего 365 баллов. Даты для обоих полуфиналов - 10 мая и 12 мая, финала конкурса - 14 мая 2016 года. Швеция будет принимать у себя конкурс в шестой раз, стране понадобилось всего лишь 3 года для того, чтобы повторить успех 2012 года, где победителем стала Лорин. Конкурс будет проводить шведская национальная телерадиокомпания SVT под руководством Европейского вещательного союза. Ведущими будут победитель прошлого года Монс Сельмерлёв и ведущая конкурса 2013 года Петра Меде.

В конкурсе примут участие 42 страны. Об этом стало известно 26 ноября 2015 года. Болгария, Босния и Герцеговина, Украина и Хорватия вернулись на конкурс. Страна-дебютант прошлого года Австралия продолжает своё участие. Португалия отказалась от участия в данном году, Румынию дисквалифицировали, ещё 14 стран продолжили неучастие с прошлых лет.

Конкурс песни «Евровидение» (Eurovision Song Contest) - конкурс эстрадной песни среди стран-членов Европейского вещательного союза. В конкурсе участвуют по одному представителю от каждой из стран-членов Европейского вещательного союза, которые подали заявки на участие. Фестиваль проходит в прямом эфире. От каждой страны может участвовать один представитель (солист или музыкальный коллектив), исполняющий песню длительностью не более трёх минут. Во время выступления на сцене должно выступать не более шести артистов одновременно. После выступления всех участников наиболее популярная песня определяется путём голосования телезрителей и жюри, в котором участвуют все страны, выступавшие в финале и полуфинале.

Конкурс проходит ежегодно, начиная с 1956 года, и является одним из наиболее популярных неспортивных мероприятий в мире, с аудиторией до 600 миллионов зрителей. Евровидение также транслируется в Киргизии, Казахстане, Австралии, Канаде, Египте, Индии, Ливане, Южной Африке, Южной Корее, США и некоторых других странах, несмотря на то, что они не участвуют в конкурсе и находятся за пределами Европы. Начиная с 2000 года конкурс постоянно транслируется в сети Интернет; в частности, в 2006 году онлайн-трансляцию посмотрело 74 тысячи человек.

Евровидение в значительной мере повлияло на известность участвовавших на нём артистов. Например, легендарные ABBA (Швеция, 1974) и Селин Дион (Швейцария, 1988) стали всемирно известными после триумфальных выступлений на песенном фестивале.
Благодарность: Filex777
YouTube YouTube YouTube YouTube YouTube YouTube YouTube
Детали торрента:
Название:VA - Eurovision Song Contest Stockholm 2016: Come Together (2016) 2CD [FLAC|Lossless|tracks + .cue] <Pop, Dance, Folk Pop, Pop Rock, Vocal>
Дата добавления:25 Апр 2016 15:11:15
Размер:919 MB
Раздают:
Качают:0
Форум:Зарубежная поп-музыка (Lossless)

All rights reserved © 2015-2018