TORRENTS43.COM

Скачать James Galway, Marisa Robles, Neville Marriner - Mozart: Flute Concertos; Concerto for Flute & Harp (2004) [FLAC|Lossless|tracks + .cue] <Classical, Baroque>


James Galway, Marisa Robles, Neville Marriner - Mozart: Flute Concertos; Concerto for Flute & Harp (2004)
Год: 2004
Жанр: Classical, Baroque
Издание: RCA Red Seal CD 59409
Продолжительность: 01:17:03

Кодек: FLAC
Битрейт: Lossless
Тип рипа: tracks + .cue

Треклист:
Flute Concerto no. 1 in G major, K 313
01. (1) Allegro maestoso 8:58
02. (2) Adagion ma non troppo 10:11
03. (3) Rondo. Tempo di menuetto 7:15
Flute Concerto no. 2 in D major, K 314 (285d)
04. (1) Allegro aperto 8:14
05. (2) Adagio ma non troppo 6:56
06. (3) Rondo. Allegro 5:48
Concerto for Flute, Harp & Orchestra in C major, K 299 (297c)
07. (1) Allegro 10:54
08. (2) Andantino 9:25
09. (3) Rondo. Allegro 9:22

Дополнительная информация:

Neville Marriner - Conductor, Primary Artist
Academy of St. Martin-in-the-Fields Orchestra
James Galway - Flute, Primary Artist
Marisa Robles - Harp, Primary Artist

Отчёт EAC:

Код:

Exact Audio Copy V1.0 beta 3 from 29. August 2011

Отчёт EAC об извлечении, выполненном 30. октября 2013, 20:58

Mozart / Flute Concertos, Concerto for Flute & Harp (James Galway, Marisa Robles, Marriner - ASMF)

Дисковод: Optiarc DVD RW AD-5170A   Adapter: 3  ID: 0

Режим чтения                 : Достоверность
Использование точного потока : Да
Отключение кэша аудио        : Да
Использование указателей C2  : Нет

Коррекция смещения при чтении                     : 48
Способность читать области Lead-in и Lead-out     : Нет
Заполнение пропущенных сэмплов тишиной            : Да
Удаление блоков с тишиной в начале и конце        : Нет
При вычислениях CRC использовались нулевые сэмплы : Да
Интерфейс                                         : Встроенный Win32-интерфейс для Win NT/2000
Обработка зазоров                                 : Добавлено к предыдущему треку

Выходной формат          : Пользовательский кодировщик
Выбранный битрейт        : 896 kBit/s
Качество                 : Высокий
Добавление ID3-тега      : Нет
Утилита сжатия           : C:\Program Files\Exact Audio Copy\FLAC\FLAC.EXE
Дополнительные параметры : -8 -V -T "ARTIST=%artist%" -T "TITLE=%title%" -T "ALBUM=%albumtitle%" -T "DATE=%year%" -T "TRACKNUMBER=%tracknr%" -T "GENRE=%genre%" -T "COMMENT=%comment%" -T "BAND=%albuminterpret%" -T "ALBUMARTIST=%albuminterpret%" -T "COMPOSER=%composer%" %haslyrics%--tag-from-file=LYRICS="%lyricsfile%"%haslyrics% -T "DISCNUMBER=%cdnumber%" -T "TOTALDISCS=%totalcds%" -T "TOTALTRACKS=%numtracks%" %hascover%--picture="%coverfile%"%hascover% %source% -o %dest%

TOC извлечённого CD

     Трек |   Старт  | Длительность | Начальный сектор | Конечный сектор
    ---------------------------------------------------------------------
       1  |  0:00.00 |    8:57.50   |           0      |      40324
       2  |  8:57.50 |   10:10.59   |       40325      |      86133
       3  | 19:08.34 |    7:15.23   |       86134      |     118781
       4  | 26:23.57 |    8:14.35   |      118782      |     155866
       5  | 34:38.17 |    6:56.35   |      155867      |     187101
       6  | 41:34.52 |    5:47.60   |      187102      |     213186
       7  | 47:22.37 |   10:54.25   |      213187      |     262261
       8  | 58:16.62 |    9:24.50   |      262262      |     304611
       9  | 67:41.37 |    9:21.38   |      304612      |     346724

Трек  1

     Имя файла M:\Mp3, new\Flac\EAC\Mozart - Flute Concertos, Concerto for Flute & Harp (James Galway, Marisa Robles, Marriner - ASMF) [flac]\01 Flute Concerto no. 1 in G major, K 313 (1) Allegro maestoso.wav

     Длина предзазора  0:00:02.00

     Пиковый уровень 92.3 %
     Скорость извлечения 5.3 X
     Качество трека 100.0 %
     CRC теста 3667197B
     CRC копии 3667197B
     Точное извлечение (достоверность 6)  [87959DE0]  (AR v2)
     Копирование... OK

Трек  2

     Имя файла M:\Mp3, new\Flac\EAC\Mozart - Flute Concertos, Concerto for Flute & Harp (James Galway, Marisa Robles, Marriner - ASMF) [flac]\02 Flute Concerto no. 1 in G major, K 313 (2) Adagion ma non troppo.wav

     Пиковый уровень 66.2 %
     Скорость извлечения 6.4 X
     Качество трека 100.0 %
     CRC теста 0DB425B7
     CRC копии 0DB425B7
     Точное извлечение (достоверность 6)  [32BC5BE2]  (AR v2)
     Копирование... OK

Трек  3

     Имя файла M:\Mp3, new\Flac\EAC\Mozart - Flute Concertos, Concerto for Flute & Harp (James Galway, Marisa Robles, Marriner - ASMF) [flac]\03 Flute Concerto no. 1 in G major, K 313 (3) Rondo. Tempo di menuetto.wav

     Пиковый уровень 75.8 %
     Скорость извлечения 7.0 X
     Качество трека 100.0 %
     CRC теста 0172C112
     CRC копии 0172C112
     Точное извлечение (достоверность 6)  [A934901E]  (AR v2)
     Копирование... OK

Трек  4

     Имя файла M:\Mp3, new\Flac\EAC\Mozart - Flute Concertos, Concerto for Flute & Harp (James Galway, Marisa Robles, Marriner - ASMF) [flac]\04 Flute Concerto no. 2 in D major, K 314 (285d) (1) Allegro aperto.wav

     Пиковый уровень 87.5 %
     Скорость извлечения 7.7 X
     Качество трека 100.0 %
     CRC теста 231941DD
     CRC копии 231941DD
     Точное извлечение (достоверность 6)  [7BA8CEA7]  (AR v2)
     Копирование... OK

Трек  5

     Имя файла M:\Mp3, new\Flac\EAC\Mozart - Flute Concertos, Concerto for Flute & Harp (James Galway, Marisa Robles, Marriner - ASMF) [flac]\05 Flute Concerto no. 2 in D major, K 314 (285d) (2) Adagio ma non troppo.wav

     Пиковый уровень 56.9 %
     Скорость извлечения 8.0 X
     Качество трека 100.0 %
     CRC теста 780191BB
     CRC копии 780191BB
     Точное извлечение (достоверность 5)  [AAB86A63]  (AR v2)
     Копирование... OK

Трек  6

     Имя файла M:\Mp3, new\Flac\EAC\Mozart - Flute Concertos, Concerto for Flute & Harp (James Galway, Marisa Robles, Marriner - ASMF) [flac]\06 Flute Concerto no. 2 in D major, K 314 (285d) (3) Rondo. Allegro.wav

     Пиковый уровень 77.3 %
     Скорость извлечения 8.3 X
     Качество трека 100.0 %
     CRC теста 5FCCCD6E
     CRC копии 5FCCCD6E
     Точное извлечение (достоверность 6)  [062F4A0A]  (AR v2)
     Копирование... OK

Трек  7

     Имя файла M:\Mp3, new\Flac\EAC\Mozart - Flute Concertos, Concerto for Flute & Harp (James Galway, Marisa Robles, Marriner - ASMF) [flac]\07 Concerto for Flute, Harp & Orchestra in C major, K 299 (297c) (1) Allegro.wav

     Пиковый уровень 98.5 %
     Скорость извлечения 8.7 X
     Качество трека 99.9 %
     CRC теста 7C43C628
     CRC копии 7C43C628
     Точное извлечение (достоверность 6)  [6CD761B8]  (AR v2)
     Копирование... OK

Трек  8

     Имя файла M:\Mp3, new\Flac\EAC\Mozart - Flute Concertos, Concerto for Flute & Harp (James Galway, Marisa Robles, Marriner - ASMF) [flac]\08 Concerto for Flute, Harp & Orchestra in C major, K 299 (297c) (2) Andantino.wav

     Пиковый уровень 82.3 %
     Скорость извлечения 9.3 X
     Качество трека 100.0 %
     CRC теста 4FA67EEE
     CRC копии 4FA67EEE
     Точное извлечение (достоверность 6)  [009C5CEE]  (AR v2)
     Копирование... OK

Трек  9

     Имя файла M:\Mp3, new\Flac\EAC\Mozart - Flute Concertos, Concerto for Flute & Harp (James Galway, Marisa Robles, Marriner - ASMF) [flac]\09 Concerto for Flute, Harp & Orchestra in C major, K 299 (297c) (3) Rondo. Allegro.wav

     Пиковый уровень 86.5 %
     Скорость извлечения 10.2 X
     Качество трека 100.0 %
     CRC теста 43334C75
     CRC копии 43334C75
     Точное извлечение (достоверность 6)  [C5E74C40]  (AR v2)
     Копирование... OK

Все треки извлечены точно

Ошибок не произошло

Конец отчёта

==== Контрольная сумма отчёта 375B99C557027A1096FCE56C0ADA5E8E323093F2169D66A81C8F49A0D178C816 ====

Cue Sheet (.cue):

Код:

REM COMMENT "CUETools generated dummy CUE sheet"
FILE "01 FC1 G, K 313 (1) Allegro maestoso.flac" WAVE
  TRACK 01 AUDIO
    INDEX 01 00:00:00
FILE "02 FC1 G, K 313 (2) Adagion ma non troppo.flac" WAVE
  TRACK 02 AUDIO
    INDEX 01 00:00:00
FILE "03 FC1 G, K 313 (3) Rondo. Tempo di menuetto.flac" WAVE
  TRACK 03 AUDIO
    INDEX 01 00:00:00
FILE "04 FC2 D, K 314 (1) Allegro aperto.flac" WAVE
  TRACK 04 AUDIO
    INDEX 01 00:00:00
FILE "05 FC2 D, K 314 (2) Adagio ma non troppo.flac" WAVE
  TRACK 05 AUDIO
    INDEX 01 00:00:00
FILE "06 FC2 D, K 314 (3) Rondo. Allegro.flac" WAVE
  TRACK 06 AUDIO
    INDEX 01 00:00:00
FILE "07 FHC C, K 299 (1) Allegro.flac" WAVE
  TRACK 07 AUDIO
    INDEX 01 00:00:00
FILE "08 FHC C, K 299 (2) Andantino.flac" WAVE
  TRACK 08 AUDIO
    INDEX 01 00:00:00
FILE "09 FHC C, K 299 (3) Rondo. Allegro.flac" WAVE
  TRACK 09 AUDIO
    INDEX 01 00:00:00

Отчёт auCDtect Task manager:

Код:

-----------------------

DON'T MODIFY THIS FILE

-----------------------

PERFORMER: auCDtect Task Manager, ver. 1.6.0 RC1 build 1.6.0.1
Copyright (c) 2008-2010 y-soft. All rights reserved
http://y-soft.org

ANALYZER: auCDtect: CD records authenticity detector, version 0.8.2
Copyright (c) 2004 Oleg Berngardt. All rights reserved.
Copyright (c) 2004 Alexander Djourik. All rights reserved.

FILE: 09 FHC C, K 299 (3) Rondo. Allegro.flac
  Size: 44710507 Hash: 73186CFB6B89636F4C39981E96733981 Accuracy: -m0
  Conclusion: CDDA 100%
  Signature: 6BFBA4FA505D2320B21963FB8B23049EB0B688FF
FILE: 08 FHC C, K 299 (2) Andantino.flac
  Size: 43990746 Hash: 7010795A8DCF04DB621ABC339497C3CD Accuracy: -m0
  Conclusion: CDDA 100%
  Signature: CDB20E1BB372583BA25B9D0C96E0B279621AE842
FILE: 07 FHC C, K 299 (1) Allegro.flac
  Size: 54951218 Hash: 1D18E9FC4A99365BD3801492DC15F4ED Accuracy: -m0
  Conclusion: CDDA 100%
  Signature: A08D2143FEB8D3F7B59E3B314DCA1299EB7E6E59
FILE: 06 FC2 D, K 314 (3) Rondo. Allegro.flac
  Size: 27495493 Hash: FACFF079CD4B12DAA661BF4955B9909B Accuracy: -m0
  Conclusion: CDDA 100%
  Signature: 92F11B4B08ECA6FCFFD0D5145281E48CEBFE3937
FILE: 05 FC2 D, K 314 (2) Adagio ma non troppo.flac
  Size: 33886298 Hash: 0D909E6898079D83E78D5B908FF45B9A Accuracy: -m0
  Conclusion: CDDA 100%
  Signature: 4BF24ED249A9524B1B994BF05B1D47148D29296B
FILE: 04 FC2 D, K 314 (1) Allegro aperto.flac
  Size: 40547556 Hash: 461E8C0B61DF80FBB4A6C7A4AB70FBF4 Accuracy: -m0
  Conclusion: CDDA 100%
  Signature: 24BDEF20CD005B7A5C7149B82CF0E86A51FF9C74
FILE: 03 FC1 G, K 313 (3) Rondo. Tempo di menuetto.flac
  Size: 35838499 Hash: 3CC7F98B54EF472B42715CC09ABC8E63 Accuracy: -m0
  Conclusion: CDDA 100%
  Signature: CA200CCA767566BE03CC349C092DFF2A25285E80
FILE: 02 FC1 G, K 313 (2) Adagion ma non troppo.flac
  Size: 48145031 Hash: DA82A3CCC5EBA0A424BF0E7154B289F0 Accuracy: -m0
  Conclusion: CDDA 100%
  Signature: 56C33070074B71FBC4ECC37A356421D5B11F908F
FILE: 01 FC1 G, K 313 (1) Allegro maestoso.flac
  Size: 45398669 Hash: 28A9E6A82AE6950554E897B51F02B3E8 Accuracy: -m0
  Conclusion: CDDA 100%
  Signature: A4E49D179127483CC733C054B5F8A06EF06E4C4B
YouTube




Поглощение/вытеснение
Только с согласия релизера

gvm55

Детали торрента:
Название:James Galway, Marisa Robles, Neville Marriner - Mozart: Flute Concertos; Concerto for Flute & Harp (2004) [FLAC|Lossless|tracks + .cue] <Classical, Baroque>
Дата добавления:30 Апр 2016 01:13:14
Размер:358 MB
Раздают:1
Качают:0
Форум:Камерная (Lossless)

All rights reserved © 2015-2018