TORRENTS43.COM

Скачать Анжелика Балабанова. Русская жена для Муссолини (2012) DVB


Анжелика Балабанова. Русская жена для Муссолини (2012) DVB
Телекомпания: Россия, ВГТРК
Жанр: Документальный

Участники: Амедио Ла Маттина-историк, внучка Бенито Муссолини-Алессандра Муссолини, Уго Интини-журналист, Джорджо Джанелли,Мария Ляфон и Леонид Млечин-писатели , правнучка Анжелики Балабановой-Марина Балабанова, Ярослав Леонтьев, Владимир Генис, Александр Асмолов

Описание:
29 апреля 1945 года на центральной площади Милана были казнены вождь итальянских фашистов Бенито Муссолини и его любовница Клара Петаччи. На съезде американских социалистов в Чикаго делегаты поздравят друг друга: наконец-то казнен кровавый палач. Слезы на глазах почетной гостьи съезда, знаменитой русской революционерки Анжелики Балабановой, ее соратники примут за слезы радости. И никто из друзей 67-летней женщины даже представить себе не мог, какая тайна навсегда связала ее судьбу с судьбой Бенито Муссолини.

Продолжительность: 00:43:42
Качество видео: DVB

Видео: AVC/H.264, 720x576@768x576, ~1171 Kbps
Аудио: MP2, 2 ch, 160 kbps, CBR

Дополнительные сведения:

О Балабановой ничего не знали в СССР и в новой России – разве что историки. Но ее хорошо помнят в Италии, Франции, Швейцарии и США как одного из выдающихся деятелей мирового социалистического движения начала и середины ХХ века. Личная жизнь Анжелики Балабановой – загадка, уравнение со многими неизвестными. Порой темная и зловещая, а порой совсем незащищенная и очень ранимая личность. Но самым крутым поворотом в ее судьбе стал тайный роман с будущим диктатором Италии. Они познакомились в 1904 году, вместе издавали газету "Аванти" - орган итальянских социалистов. Но даже во времена их страсти Балабанова не рассказывала о любовной связи с Муссолини. Сначала потому, что он был женат. А позже она прокляла бывшего соратника и друга: он сменил идеи социализма на фашистские знамена. Из-за этого не признавалась в их близости. Из-за этого бежала из Италии в революционную Россию. Но через два года ей во второй раз пришлось покинуть Родину: смириться с кровавыми деяниями большевиков она не могла. После Второй мировой войны Балабанова вернулась в Италию. Соратники называли ее "невероятной Анжеликой" - за революционную страстность, за преданность идеям борьбы. Но в старости Балабанову уже мало интересовали революционные бури. Роман с Муссолини в годы ее молодости навсегда остался для нее запретной темой, тайной. Но самая главная загадка Анжелики Балабановой - родила ли она дочь от Бенито Муссолини? О тайнах "невероятной Анжелики", о сенсационных версиях итальянских и российских историков, о мистических поворотах судьбы легендарной революционерки – этот фильм.
Автор: Анатолий Ярошевский
Режиссер: Денис Красильников

Mediainfo:

Код:

Общее
Идентификатор                            : 16 (0x10)
Полное имя                               : Angelica Balabanov_Russian woman for Mussolini.ts
Формат                                   : MPEG-TS
Размер файла                             : 438 Мбайт
Продолжительность                        : 43 м.
Режим общего битрейта                    : Переменный
Общий поток                              : 1402 Кбит/сек

Видео
Идентификатор                            : 1405 (0x57D)
Идентификатор меню                       : 405 (0x195)
Формат                                   : AVC
Формат/Информация                        : Advanced Video Codec
Профиль формата                          : Main@L3.0
Параметр CABAC формата                   : Да
Параметр ReFrames формата                : 3 кадра
Идентификатор кодека                     : 27
Продолжительность                        : 43 м.
Битрейт                                  : 1171 Кбит/сек
Ширина                                   : 720 пикселей
Высота                                   : 576 пикселей
Соотношение сторон                       : 4:3
Частота кадров                           : 25,000 кадров/сек
Стандарт вещания                         : PAL
Цветовое пространство                    : YUV
Субдискретизация насыщенности            : 4:2:0
Битовая глубина                          : 8 бит
Тип развёртки                            : Чересстрочная
Порядок развёртки                        : Верхнее поле первое
Бит/(Пиксели*Кадры)                      : 0.113
Размер потока                            : 366 Мбайт (84%)
Основные цвета                           : BT.601 PAL
Характеристики трансфера                 : BT.470 System B, BT.470 System G
Коэффициенты матрицы                     : BT.601

Аудио
Идентификатор                            : 2405 (0x965)
Идентификатор меню                       : 405 (0x195)
Формат                                   : MPEG Audio
Версия формата                           : Version 1
Профиль формата                          : Layer 2
Идентификатор кодека                     : 4
Продолжительность                        : 43 м.
Вид битрейта                             : Постоянный
Битрейт                                  : 160 Кбит/сек
Каналы                                   : 2 канала
Частота                                  : 48,0 КГц
Метод сжатия                             : С потерями
Задержка видео                           : 29 мс.
Размер потока                            : 50,0 Мбайт (11%)
Язык                                     : std
Язык, дополнительно                      : Clean effects
Скриншоты:


Детали торрента:
Название:Анжелика Балабанова. Русская жена для Муссолини (2012) DVB
Дата добавления:02 Май 2016 09:01:40
Размер:438 MB
Раздают:
Качают:0
Форум:Личности в истории

All rights reserved © 2015-2018