TORRENTS43.COM

Скачать Маршрут построен (2016) WEB-DL [H.264/1080p-LQ]


Маршрут построен (2016) WEB-DL [H.264/1080p-LQ]
Производство: Россия
Жанр: Ужасы, Триллер

Режиссер: Олег Асадулин
Продюсер: Георгий Малков, Владимир Поляков, Иван Капитонов
Актеры: Светлана Устинова, Павел Чинарёв, Виталия Корниенко, Кристина Шаповалова, Сергей Сафронов, Илья Сафронов, Андрей Сафронов, Диана Мелисон, Александр Цёма

Описание:
Прошлой весной произошло страшное преступление - в результате ссоры муж убил жену, расчленил труп и спрятал в багажнике их автомобиля. Несмотря на попытки отвести от себя подозрение, убийца вскоре был арестован полицией. Андрей и Оля - семейная пара. Андрей покупает подозрительно дешевый автомобиль в хорошем состоянии. Тем же вечером, взяв свою пятилетнюю дочь, они отправляются в ночную поездку в другой город. В дороге Оля слышит какие-то странные звуки и говорит Андрею, что чувствует - с машиной что-то не то. Это вызывает раздражение Андрея, который ничего этого не замечает, и становится поводом для конфликта. Тем временем их дочка на заднем сидении общается с какой-то невидимой тетей, но родители не слышат. Призрак убитой женщины не любит семейных ссор, и наши герои в ее власти... Их маршрут уже построен.


Возраст: 16+ (зрителям, достигшим 16 лет)
Дата российской премьеры: 31 марта 2016, «Двадцатый Век Фокс СНГ»

Продолжительность: 01:21:44
Качество видео: WEB-DL
Перевод: Не требуется (русский)
Вид субтитров: Отсутствуют

Видео: AVC, 1920x816 (2.35:1), 25.000 fps, 3 860 Kbps (0.099 bit/pixel)
Аудио: AC-3, 44.1 KHz, 2 ch, 448 Kbps, CBR

Mediainfo:

Код: выделить все

Формат                                   : Matroska
Версия формата                           : Version 2
Размер файла                             : 2,51 Гбайт
Продолжительность                        : 1 ч. 21 м.
Общий поток                              : 4396 Кбит/сек
Дата кодирования                         : UTC 2016-05-04 00:31:16
Программа кодирования                    : mkvmerge v8.3.0 ('Over the Horizon') 64bit
Библиотека кодирования                   : libebml v1.3.1 + libmatroska v1.4.2
DURATION                                 : 01:21:44.682000000
NUMBER_OF_FRAMES                         : 140818
NUMBER_OF_BYTES                          : 274662172
_STATISTICS_WRITING_APP                  : mkvmerge v8.3.0 ('Over the Horizon') 64bit
_STATISTICS_WRITING_DATE_UTC             : 2016-05-04 00:31:16
_STATISTICS_TAGS                         : BPS DURATION NUMBER_OF_FRAMES NUMBER_OF_BYTES

Видео
Идентификатор                            : 1
Формат                                   : AVC
Формат/Информация                        : Advanced Video Codec
Профиль формата                          : High@L4.1
Параметр CABAC формата                   : Да
Параметр ReFrames формата                : 4 кадра
Идентификатор кодека                     : V_MPEG4/ISO/AVC
Продолжительность                        : 1 ч. 21 м.
Битрейт                                  : 3860 Кбит/сек
Ширина                                   : 1920 пикселей
Высота                                   : 816 пикселей
Соотношение сторон                       : 2,35:1
Режим частоты кадров                     : Постоянный
Частота кадров                           : 25,000 кадров/сек
Цветовое пространство                    : YUV
Субдискретизация насыщенности            : 4:2:0
Битовая глубина                          : 8 бит
Тип развёртки                            : Прогрессивная
Бит/(Пиксели*Кадры)                      : 0.099
Размер потока                            : 2,20 Гбайт (88%)
Default                                  : Да
Forced                                   : Нет

Аудио
Идентификатор                            : 2
Формат                                   : AC-3
Формат/Информация                        : Audio Coding 3
Расширение режима                        : CM (complete main)
Параметр Endianness формата              : Big
Идентификатор кодека                     : A_AC3
Продолжительность                        : 1 ч. 21 м.
Вид битрейта                             : Постоянный
Битрейт                                  : 448 Кбит/сек
Каналы                                   : 2 канала
Расположение каналов                     : Front: L R
Частота                                  : 44,1 КГц
Битовая глубина                          : 16 бит
Метод сжатия                             : С потерями
Размер потока                            : 262 Мбайт (10%)
Default                                  : Да
Forced                                   : Нет
 
Скриншоты:



Все одноименные релизы в Клубе

Смотреть Online

http://37.220.36.15/video/d19729c19103f651/iframe
Детали торрента:
Название:Маршрут построен (2016) WEB-DL [H.264/1080p-LQ]
Дата добавления:04 Май 2016 08:52:25
Размер:2,51 GB
Раздают:3
Качают:0
Форум:Отечественные Фильмы (HD*Rip/LQ, DVDRip, SATRip, VHSRip)

All rights reserved © 2015-2018