TORRENTS43.COM

Скачать Наши друзья на севере / Our Friends in the North (1995) DVDRip (серии 1-9 из 9) [EN]


Наши друзья на севере / Our Friends in the North (1995) DVDRip
Производство: Великобритания / British Broadcasting Corporation (BBC)
Жанр: Драма

Режиссер: Саймон Селлан Джоунс, Педр Джеймс, Стюарт Урбан
Актеры: Кристофер Экклстон, Марк Стронг, Джина МакКи, Дэниэл Крэйг, Питер Вон, Дэвид Брэдли, Фрида Доуи, Алан Армстронг, Малкольм МакДауэлл, Дэниэл Уэбб

Описание:
Девятисерийный фильм рассказывает о судьбах четырех друзей и охватывает период от оптимистичных 60-х до неуверенных 90-х.



Продолжительность: ~01:05:00 серия
Качество видео: DVDRip
Перевод: Отсутствует
Язык озвучки: Английский

Видео: DivX, 720x464, ~777 Kbps
Аудио: MP3, 2 ch, 256 Kbps

Mediainfo:

Код:

General
Complete name                  : E:\Our Friends In The North\1967.avi
Format                         : AVI
Format/Info                    : Audio Video Interleave
File size                      : 497 MiB
Duration                       : 1h 5mn
Overall bit rate mode          : Variable
Overall bit rate               : 1 054 Kbps

Video
ID                             : 0
Format                         : MPEG-4 Visual
Format settings, BVOP          : 1
Format settings, QPel          : No
Format settings, GMC           : No warppoints
Format settings, Matrix        : Default (H.263)
Muxing mode                    : Packed bitstream
Codec ID                       : DX50
Codec ID/Hint                  : DivX 5
Duration                       : 1h 5mn
Bit rate                       : 777 Kbps
Width                          : 720 pixels
Height                         : 464 pixels
Display aspect ratio           : 16:10
Frame rate                     : 25.000 fps
Color space                    : YUV
Chroma subsampling             : 4:2:0
Bit depth                      : 8 bits
Scan type                      : Progressive
Compression mode               : Lossy
Bits/(Pixel*Frame)             : 0.093
Stream size                    : 366 MiB (74%)
Title                          : Video
Writing library                : DivX 5.2.1 Alpha (UTC 2004-09-08)

Audio
ID                             : 1
Format                         : MPEG Audio
Format version                 : Version 1
Format profile                 : Layer 3
Mode                           : Joint stereo
Codec ID                       : 55
Codec ID/Hint                  : MP3
Duration                       : 1h 5mn
Bit rate mode                  : Variable
Bit rate                       : 256 Kbps
Channel(s)                     : 2 channels
Sampling rate                  : 44.1 KHz
Compression mode               : Lossy
Stream size                    : 125 MiB (25%)
Alignment                      : Aligned on interleaves
Interleave, duration           : 26 ms (0.65 video frame)
Interleave, preload duration   : 473 ms
Title                          : Audio
Скриншоты:


Детали торрента:
Название:Наши друзья на севере / Our Friends in the North (1995) DVDRip (серии 1-9 из 9) [EN]
Дата добавления:07 Май 2016 19:27:17
Размер:4,37 GB
Раздают:
Качают:0
Форум:Архив Сериалов

All rights reserved © 2015-2018