TORRENTS43.COM

Скачать Joe Cocker - One Night Of Sin (1989) [FLAC|Lossless|image + .cue] <Rock, Blues>


Joe Cocker - One Night Of Sin (1989)
Год: 1989
Жанр: Rock, Blues
Издание: Capitol Records – CDP 7 91828 2
Продолжительность: 00:49:53

Кодек: FLAC
Битрейт: Lossless
Тип рипа: image + .cue

Треклист:
01. When The Night Comes
02. I Will Live For You
03. Got To Use My Imagination
04. Letting Go
05. Just To Keep From Drowning
06. Unforgiven
07. Another Mind Gone
08. Fever
09. You Know It's Gonna Hurt
10. Bad Bad Sign
11. I'm Your Man
12. One Night Of Sin

Отчёт EAC:

Код:

Exact Audio Copy V0.99 prebeta 4 from 23. January 2008

Отчёт EAC об извлечении, выполненном 4. июня 2008, 13:59

Joe Cocker / One Night Of Sin

Дисковод: BENQ    DVD DD DW1640   Adapter: 1  ID: 1

Режим чтения                 : Достоверность
Использование точного потока : Да
Отключение кэша аудио        : Да
Использование указателей C2  : Нет

Коррекция смещения при чтении                     : 618
Способность читать области Lead-in и Lead-out     : Нет
Заполнение пропущенных сэмплов тишиной            : Да
Удаление блоков с тишиной в начале и конце        : Нет
При вычислениях CRC использовались нулевые сэмплы : Да
Интерфейс                                         : Установленный внешний ASPI-интерфейс

Выходной формат          : Пользовательский кодировщик
Выбранный битрейт        : 1024 kBit/s
Качество                 : Высокий
Добавление ID3-тэга      : Нет
Утилита сжатия           : C:\Program Files\Exact Audio Copy\Flac\flac.exe
Дополнительные параметры : -6 -V -T "ARTIST=%a" -T "TITLE=%t" -T "ALBUM=%g" -T "DATE=%y" -T "TRACKNUMBER=%n" -T "GENRE=%m" -T "COMMENT=%e" %s -o %d

TOC извлечённого CD

     Трек |   Старт  | Длительность | Начальный сектор | Конечный сектор
    ---------------------------------------------------------------------
       1  |  0:00.00 |    5:20.05   |           0      |      24004
       2  |  5:20.05 |    4:09.50   |       24005      |      42729
       3  |  9:29.55 |    4:25.06   |       42730      |      62610
       4  | 13:54.61 |    4:11.67   |       62611      |      81502
       5  | 18:06.53 |    4:40.38   |       81503      |     102540
       6  | 22:47.16 |    3:29.62   |      102541      |     118277
       7  | 26:17.03 |    4:44.44   |      118278      |     139621
       8  | 31:01.47 |    3:38.48   |      139622      |     156019
       9  | 34:40.20 |    3:57.58   |      156020      |     173852
      10  | 38:38.03 |    4:09.08   |      173853      |     192535
      11  | 42:47.11 |    3:52.22   |      192536      |     209957
      12  | 46:39.33 |    3:14.09   |      209958      |     224516

Характеристики диапазона извлечения и сообщения об ошибках

Выбранный диапазон

     Имя файла C:\Music Lossless\Joe Cocker - One Night Of Sin\Joe Cocker - One Night Of Sin.wav

     Пиковый уровень 97.7 %
     Качество диапазона 99.9 %
     CRC теста 5A4CE6E5
     CRC копии 5A4CE6E5
     Копирование... OK

Ошибок не произошло

AccurateRip: сводка

Трек  1  нет в базе данных
Трек  2  нет в базе данных
Трек  3  нет в базе данных
Трек  4  нет в базе данных
Трек  5  нет в базе данных
Трек  6  нет в базе данных
Трек  7  нет в базе данных
Трек  8  нет в базе данных
Трек  9  нет в базе данных
Трек 10  нет в базе данных
Трек 11  нет в базе данных
Трек 12  нет в базе данных

Ни одного трека нет в базе AccurateRip

Конец отчёта

Cue Sheet (.cue):

Код:

REM GENRE Rock
REM DATE 1989
REM DISCID A70BB10C
REM COMMENT "ExactAudioCopy v0.99pb4"
PERFORMER "Joe Cocker"
TITLE "One Night Of Sin"
FILE "Joe Cocker - One Night Of Sin.flac" WAVE
  TRACK 01 AUDIO
    TITLE "When The Night Comes"
    PERFORMER "Joe Cocker"
    INDEX 01 00:00:00
  TRACK 02 AUDIO
    TITLE "I Will Live For You"
    PERFORMER "Joe Cocker"
    FLAGS DCP
    INDEX 01 05:20:05
  TRACK 03 AUDIO
    TITLE "Got To Use My Imagination"
    PERFORMER "Joe Cocker"
    FLAGS DCP
    INDEX 01 09:29:55
  TRACK 04 AUDIO
    TITLE "Letting Go"
    PERFORMER "Joe Cocker"
    FLAGS DCP
    INDEX 01 13:54:61
  TRACK 05 AUDIO
    TITLE "Just To Keep From Drowning"
    PERFORMER "Joe Cocker"
    FLAGS DCP
    INDEX 01 18:06:53
  TRACK 06 AUDIO
    TITLE "Unforgiven"
    PERFORMER "Joe Cocker"
    FLAGS DCP
    INDEX 01 22:47:16
  TRACK 07 AUDIO
    TITLE "Another Mind Gone"
    PERFORMER "Joe Cocker"
    FLAGS DCP
    INDEX 01 26:17:03
  TRACK 08 AUDIO
    TITLE "Fever"
    PERFORMER "Joe Cocker"
    FLAGS DCP
    INDEX 01 31:01:47
  TRACK 09 AUDIO
    TITLE "You Know It's Gonna Hurt"
    PERFORMER "Joe Cocker"
    FLAGS DCP
    INDEX 01 34:40:20
  TRACK 10 AUDIO
    TITLE "Bad Bad Sign"
    PERFORMER "Joe Cocker"
    FLAGS DCP
    INDEX 01 38:38:03
  TRACK 11 AUDIO
    TITLE "I'm Your Man"
    PERFORMER "Joe Cocker"
    FLAGS DCP
    INDEX 01 42:47:11
  TRACK 12 AUDIO
    TITLE "One Night Of Sin"
    PERFORMER "Joe Cocker"
    FLAGS DCP
    INDEX 01 46:39:33

Отчёт auCDtect Task manager:

Код:

-----------------------

DON'T MODIFY THIS FILE

-----------------------

PERFORMER: auCDtect Task Manager, ver. 1.6.0 RC1 build 1.6.0.1
Copyright (c) 2008-2010 y-soft. All rights reserved
http://y-soft.org

ANALYZER: auCDtect: CD records authenticity detector, version 0.8.2
Copyright (c) 2004 Oleg Berngardt. All rights reserved.
Copyright (c) 2004 Alexander Djourik. All rights reserved.

FILE: Joe Cocker - One Night Of Sin.flac
  Size: 348430682 Hash: 12FB613F0896297DDF3B3208E8EB6C59 Accuracy: -m0
  Conclusion: CDDA 100%
  Signature: F1776A966EF9107E43D292CEE5705F6F9C326955

Спектрограмма:



Детали торрента:
Название:Joe Cocker - One Night Of Sin (1989) [FLAC|Lossless|image + .cue] <Rock, Blues>
Дата добавления:15 Май 2016 08:56:58
Размер:336 MB
Раздают:
Качают:0
Форум:Rock (Lossless)

All rights reserved © 2015-2018