TORRENTS43.COM

Скачать Структура Момента (17.05.2016) SATRip


Структура Момента (17.05.2016) SATRip
Телекомпания: Первый канал
Жанр: Информационно-аналитическая программа, политика
Ведущий: Валерий Фадеев

Описание:
Еженедельное общественно‑политическое ток‑шоу, участники которого в формате «круглого стола» обсуждают самые острые темы, с которыми сталкивается сегодня Россия, и предлагают на суд общественности возможные варианты их решений.


Продолжительность: 00:52:17
Качество видео: SATRip

Видео: Xvid, 720x464, ~1800 Кбит/сек
Аудио: MP3, 2 ch, 128 Кбит/сек, CBR

Mediainfo

Общее
Полное имя : F:\видео\фильмы\Структура Момента\Структура момента.2016.05.17.SATRip.avi
Формат : AVI
Формат/Информация : Audio Video Interleave
Размер файла : 723 Мбайт
Продолжительность : 52 м.
Общий поток : 1943 Кбит/сек
Программа кодирования : VirtualDubMod 1.5.10.3 | www.virtualdub-fr.org || (build 2550/release)
Библиотека кодирования : VirtualDubMod build 2550/release

Видео
Идентификатор : 0
Формат : MPEG-4 Visual
Профиль формата : Advanced Simple@L5
Параметр BVOP формата : 2
Параметр QPel формата : Нет
Параметр GMC формата : Без точки перехода
Параметр матрицы формата : Default (MPEG)
Идентификатор кодека : XVID
Идентификатор кодека/Подсказка : XviD
Продолжительность : 52 м.
Битрейт : 1805 Кбит/сек
Ширина : 720 пикселей
Высота : 464 пикселя
Соотношение сторон : 16:10
Частота кадров : 25,000 кадров/сек
Цветовое пространство : YUV
Субдискретизация насыщенности : 4:2:0
Битовая глубина : 8 бит
Тип развёртки : Прогрессивная
Метод сжатия : С потерями
Бит/(Пиксели*Кадры) : 0.216
Размер потока : 672 Мбайт (93%)
Библиотека кодирования : XviD 1.2.1 (UTC 2008-12-04)

Аудио
Идентификатор : 1
Формат : MPEG Audio
Версия формата : Version 1
Профиль формата : Layer 3
Идентификатор кодека : 55
Идентификатор кодека/Подсказка : MP3
Продолжительность : 52 м.
Вид битрейта : Постоянный
Битрейт : 128 Кбит/сек
Каналы : 2 канала
Частота : 48,0 КГц
Метод сжатия : С потерями
Размер потока : 47,6 Мбайт (7%)
Выравнивание : Соединение по промежуткам
Продолжительность промежутка : 40 мс. (1,00 видеокадр)
Время предзагрузки промежутка : 504 мс.
Библиотека кодирования : LAME3.99r
Настройки программы : -m s -V 4 -q 2 -lowpass 17 -b 128

Скриншоты:




Детали торрента:
Название:Структура Момента (17.05.2016) SATRip
Дата добавления:17 Май 2016 20:58:55
Размер:723 MB
Раздают:
Качают:0
Форум:Публицистика, политика и экономика

All rights reserved © 2015-2018