TORRENTS43.COM

Скачать VA - Hospital Mixtape: S.P.Y (2016) [MP3|320 кб/с] <Drum & Bass>


VA - Hospital Mixtape: S.P.Y (2016)


Год выпуска: 2016-05-27
Жанр: Drum & Bass
Лейбл: Hospital Records
Каталог №: NHS290DD
Продолжительность: 03:28:14

Кодек: MP3
Битрейт: 320 кб/с
Тип битрейта: CBR




Треклист:

01. TC, Jakes - Rep (S.P.Y Remix)
02. SpectraSoul - 4URGH
03. S.P.Y - Take Control
04. Bladerunner - The Storm
05. S.P.Y - Second Encounter
06. Dimension - Panzer
07. Logistics, Inja - Smoke Rings
08. Alibi - Hornet
09. M Set, Deefa - All Consuming Fear (Amoss Remix)
10. S.P.Y - Silent Wave
11. MachineCode, Lockjaw - Cry Me
12. Noisia - Omnivore
13. Annix - Contraband
14. Whiney - Guardians
15. PA - Battle of the Witts (Boosta & Atmos T Remix)

открыть треклист

16. Fred V & Grafix - Ultraviolet (S.P.Y Remix)
17. Klax - Hotline
18. Dub Elements - Soulbringer
19. Anile - Don't Let Me In
20. Digital - Deadline (S.P.Y Remix)
21. London Elektricity - Why Are We Here? (S.P.Y Remix)
22. Random Movement - In Space, No One Can Hear You Funk
23. Break - Hope (feat. Celestine)
24. Muffler - Valentine
25. BCee - Back to the Street (S.P.Y Remix)
26. Lenzman - Cherry Blossom
27. Lisp - Got Me Down
28. Larigold - Don't Stop
29. Unreal, S.P.Y - Enduro
30. Keeno - Eos
31. S.P.Y - What the Future Holds (Etherwood Remix)
32. S.P.Y - Hospital Mixtape: S.P.Y (Continuous DJ Mix)

Спектрограмма:



MediaInfo:

Код:
Общее
Полное имя                               : D:\Music\Electronic\MP3\Various Artists\Hospital Mixtape S.P.Y (2016)\01. TC, Jakes - Rep (S.P.Y Remix).mp3
Формат                                   : MPEG Audio
Размер файла                             : 11,4 Мбайт
Продолжительность                        : 4 м. 59 с.
Режим общего битрейта                    : Постоянный
Общий поток                              : 320 Кбит/сек
Альбом                                   : Hospital Mixtape: S.P.Y
Трек                                     : Rep (S.P.Y Remix)
Трек/Положение                           : 01
Исполнитель                              : TC, Jakes
Издатель                                 : Hospital
Жанр                                     : Drum & Bass
Дата записи                              : 2016-00-00
Библиотека кодирования                   : LAME3.99
Примечание                               : Lbl: Hospital #: NHS290DD
Rip date                                 : 2016-05-27
Оригинал                                 : WEB
Ripping tool                             : EAC
Release type                             : Normal release
Catalog #                                : NHS290DD

Аудио
Формат                                   : MPEG Audio
Версия формата                           : Version 1
Профиль формата                          : Layer 3
Режим                                    : Joint stereo
Продолжительность                        : 4 м. 59 с.
Вид битрейта                             : Постоянный
Битрейт                                  : 320 Кбит/сек
Каналы                                   : 2 канала
Частота                                  : 44,1 КГц
Метод сжатия                             : С потерями
Размер потока                            : 11,4 Мбайт (100%)
Библиотека кодирования                   : LAME3.99
Настройки программы                      : -m j -V 4 -q 0 -lowpass 20.5
Язык                                     : English

Общее
Полное имя                               : D:\Music\Electronic\MP3\Various Artists\Hospital Mixtape S.P.Y (2016)\02. SpectraSoul - 4URGH.mp3
Формат                                   : MPEG Audio
Размер файла                             : 11,3 Мбайт
Продолжительность                        : 4 м. 57 с.
Режим общего битрейта                    : Постоянный
Общий поток                              : 320 Кбит/сек
Альбом                                   : Hospital Mixtape: S.P.Y
Трек                                     : 4URGH
Трек/Положение                           : 02
Исполнитель                              : SpectraSoul
Издатель                                 : Hospital
Жанр                                     : Drum & Bass
Дата записи                              : 2016-00-00
Библиотека кодирования                   : LAME3.99
Примечание                               : Lbl: Hospital #: NHS290DD
Rip date                                 : 2016-05-27
Оригинал                                 : WEB
Ripping tool                             : EAC
Release type                             : Normal release
Catalog #                                : NHS290DD

Аудио
Формат                                   : MPEG Audio
Версия формата                           : Version 1
Профиль формата                          : Layer 3
Режим                                    : Joint stereo
Расширение режима                        : MS Stereo
Продолжительность                        : 4 м. 57 с.
Вид битрейта                             : Постоянный
Битрейт                                  : 320 Кбит/сек
Каналы                                   : 2 канала
Частота                                  : 44,1 КГц
Метод сжатия                             : С потерями
Размер потока                            : 11,3 Мбайт (100%)
Библиотека кодирования                   : LAME3.99
Настройки программы                      : -m j -V 4 -q 0 -lowpass 20.5
Язык                                     : English

Общее
Полное имя                               : D:\Music\Electronic\MP3\Various Artists\Hospital Mixtape S.P.Y (2016)\03. S.P.Y - Take Control.mp3
Формат                                   : MPEG Audio
Размер файла                             : 10,6 Мбайт
Продолжительность                        : 4 м. 37 с.
Режим общего битрейта                    : Постоянный
Общий поток                              : 320 Кбит/сек
Альбом                                   : Hospital Mixtape: S.P.Y
Трек                                     : Take Control
Трек/Положение                           : 03
Исполнитель                              : S.P.Y
Издатель                                 : Hospital
Жанр                                     : Drum & Bass
Дата записи                              : 2016-00-00
Библиотека кодирования                   : LAME3.99
Примечание                               : Lbl: Hospital #: NHS290DD
Rip date                                 : 2016-05-27
Оригинал                                 : WEB
Ripping tool                             : EAC
Release type                             : Normal release
Catalog #                                : NHS290DD

Аудио
Формат                                   : MPEG Audio
Версия формата                           : Version 1
Профиль формата                          : Layer 3
Режим                                    : Joint stereo
Продолжительность                        : 4 м. 37 с.
Вид битрейта                             : Постоянный
Битрейт                                  : 320 Кбит/сек
Каналы                                   : 2 канала
Частота                                  : 44,1 КГц
Метод сжатия                             : С потерями
Размер потока                            : 10,6 Мбайт (100%)
Библиотека кодирования                   : LAME3.99
Настройки программы                      : -m j -V 4 -q 0 -lowpass 20.5
Язык                                     : English

Общее
Полное имя                               : D:\Music\Electronic\MP3\Various Artists\Hospital Mixtape S.P.Y (2016)\04. Bladerunner - The Storm.mp3
Формат                                   : MPEG Audio
Размер файла                             : 12,0 Мбайт
Продолжительность                        : 5 м. 15 с.
Режим общего битрейта                    : Постоянный
Общий поток                              : 320 Кбит/сек
Альбом                                   : Hospital Mixtape: S.P.Y
Трек                                     : The Storm
Трек/Положение                           : 04
Исполнитель                              : Bladerunner
Издатель                                 : Hospital
Жанр                                     : Drum & Bass
Дата записи                              : 2016-00-00
Библиотека кодирования                   : LAME3.99
Примечание                               : Lbl: Hospital #: NHS290DD
Rip date                                 : 2016-05-27
Оригинал                                 : WEB
Ripping tool                             : EAC
Release type                             : Normal release
Catalog #                                : NHS290DD

Аудио
Формат                                   : MPEG Audio
Версия формата                           : Version 1
Профиль формата                          : Layer 3
Режим                                    : Joint stereo
Продолжительность                        : 5 м. 15 с.
Вид битрейта                             : Постоянный
Битрейт                                  : 320 Кбит/сек
Каналы                                   : 2 канала
Частота                                  : 44,1 КГц
Метод сжатия                             : С потерями
Размер потока                            : 12,0 Мбайт (100%)
Библиотека кодирования                   : LAME3.99
Настройки программы                      : -m j -V 4 -q 0 -lowpass 20.5
Язык                                     : English

Общее
Полное имя                               : D:\Music\Electronic\MP3\Various Artists\Hospital Mixtape S.P.Y (2016)\05. S.P.Y - Second Encounter.mp3
Формат                                   : MPEG Audio
Размер файла                             : 9,13 Мбайт
Продолжительность                        : 3 м. 59 с.
Режим общего битрейта                    : Постоянный
Общий поток                              : 320 Кбит/сек
Альбом                                   : Hospital Mixtape: S.P.Y
Трек                                     : Second Encounter
Трек/Положение                           : 05
Исполнитель                              : S.P.Y
Издатель                                 : Hospital
Жанр                                     : Drum & Bass
Дата записи                              : 2016-00-00
Библиотека кодирования                   : LAME3.99
Примечание                               : Lbl: Hospital #: NHS290DD
Rip date                                 : 2016-05-27
Оригинал                                 : WEB
Ripping tool                             : EAC
Release type                             : Normal release
Catalog #                                : NHS290DD

Аудио
Формат                                   : MPEG Audio
Версия формата                           : Version 1
Профиль формата                          : Layer 3
Режим                                    : Joint stereo
Продолжительность                        : 3 м. 59 с.
Вид битрейта                             : Постоянный
Битрейт                                  : 320 Кбит/сек
Каналы                                   : 2 канала
Частота                                  : 44,1 КГц
Метод сжатия                             : С потерями
Размер потока                            : 9,12 Мбайт (100%)
Библиотека кодирования                   : LAME3.99
Настройки программы                      : -m j -V 4 -q 0 -lowpass 20.5
Язык                                     : English

Общее
Полное имя                               : D:\Music\Electronic\MP3\Various Artists\Hospital Mixtape S.P.Y (2016)\06. Dimension - Panzer.mp3
Формат                                   : MPEG Audio
Размер файла                             : 9,69 Мбайт
Продолжительность                        : 4 м. 13 с.
Режим общего битрейта                    : Постоянный
Общий поток                              : 320 Кбит/сек
Альбом                                   : Hospital Mixtape: S.P.Y
Трек                                     : Panzer
Трек/Положение                           : 06
Исполнитель                              : Dimension
Издатель                                 : Hospital
Жанр                                     : Drum & Bass
Дата записи                              : 2016-00-00
Библиотека кодирования                   : LAME3.99
Примечание                               : Lbl: Hospital #: NHS290DD
Rip date                                 : 2016-05-27
Оригинал                                 : WEB
Ripping tool                             : EAC
Release type                             : Normal release
Catalog #                                : NHS290DD

Аудио
Формат                                   : MPEG Audio
Версия формата                           : Version 1
Профиль формата                          : Layer 3
Режим                                    : Joint stereo
Продолжительность                        : 4 м. 14 с.
Вид битрейта                             : Постоянный
Битрейт                                  : 320 Кбит/сек
Каналы                                   : 2 канала
Частота                                  : 44,1 КГц
Метод сжатия                             : С потерями
Размер потока                            : 9,68 Мбайт (100%)
Библиотека кодирования                   : LAME3.99
Настройки программы                      : -m j -V 4 -q 0 -lowpass 20.5
Язык                                     : English

Общее
Полное имя                               : D:\Music\Electronic\MP3\Various Artists\Hospital Mixtape S.P.Y (2016)\07. Logistics, Inja - Smoke Rings.mp3
Формат                                   : MPEG Audio
Размер файла                             : 10,4 Мбайт
Продолжительность                        : 4 м. 33 с.
Режим общего битрейта                    : Постоянный
Общий поток                              : 320 Кбит/сек
Альбом                                   : Hospital Mixtape: S.P.Y
Трек                                     : Smoke Rings
Трек/Положение                           : 07
Исполнитель                              : Logistics, Inja
Издатель                                 : Hospital
Жанр                                     : Drum & Bass
Дата записи                              : 2016-00-00
Библиотека кодирования                   : LAME3.99
Примечание                               : Lbl: Hospital #: NHS290DD
Rip date                                 : 2016-05-27
Оригинал                                 : WEB
Ripping tool                             : EAC
Release type                             : Normal release
Catalog #                                : NHS290DD

Аудио
Формат                                   : MPEG Audio
Версия формата                           : Version 1
Профиль формата                          : Layer 3
Режим                                    : Joint stereo
Расширение режима                        : MS Stereo
Продолжительность                        : 4 м. 33 с.
Вид битрейта                             : Постоянный
Битрейт                                  : 320 Кбит/сек
Каналы                                   : 2 канала
Частота                                  : 44,1 КГц
Метод сжатия                             : С потерями
Размер потока                            : 10,4 Мбайт (100%)
Библиотека кодирования                   : LAME3.99
Настройки программы                      : -m j -V 4 -q 0 -lowpass 20.5
Язык                                     : English

Общее
Полное имя                               : D:\Music\Electronic\MP3\Various Artists\Hospital Mixtape S.P.Y (2016)\08. Alibi - Hornet.mp3
Формат                                   : MPEG Audio
Размер файла                             : 10,3 Мбайт
Продолжительность                        : 4 м. 30 с.
Режим общего битрейта                    : Постоянный
Общий поток                              : 320 Кбит/сек
Альбом                                   : Hospital Mixtape: S.P.Y
Трек                                     : Hornet
Трек/Положение                           : 08
Исполнитель                              : Alibi
Издатель                                 : Hospital
Жанр                                     : Drum & Bass
Дата записи                              : 2016-00-00
Библиотека кодирования                   : LAME3.99
Примечание                               : Lbl: Hospital #: NHS290DD
Rip date                                 : 2016-05-27
Оригинал                                 : WEB
Ripping tool                             : EAC
Release type                             : Normal release
Catalog #                                : NHS290DD

Аудио
Формат                                   : MPEG Audio
Версия формата                           : Version 1
Профиль формата                          : Layer 3
Режим                                    : Joint stereo
Продолжительность                        : 4 м. 30 с.
Вид битрейта                             : Постоянный
Битрейт                                  : 320 Кбит/сек
Каналы                                   : 2 канала
Частота                                  : 44,1 КГц
Метод сжатия                             : С потерями
Размер потока                            : 10,3 Мбайт (100%)
Библиотека кодирования                   : LAME3.99
Настройки программы                      : -m j -V 4 -q 0 -lowpass 20.5
Язык                                     : English

Общее
Полное имя                               : D:\Music\Electronic\MP3\Various Artists\Hospital Mixtape S.P.Y (2016)\09. M Set, Deefa - All Consuming Fear (Amoss Remix).mp3
Формат                                   : MPEG Audio
Размер файла                             : 13,6 Мбайт
Продолжительность                        : 5 м. 57 с.
Режим общего битрейта                    : Постоянный
Общий поток                              : 320 Кбит/сек
Альбом                                   : Hospital Mixtape: S.P.Y
Трек                                     : All Consuming Fear (Amoss Remix)
Трек/Положение                           : 09
Исполнитель                              : M Set, Deefa
Издатель                                 : Hospital
Жанр                                     : Drum & Bass
Дата записи                              : 2016-00-00
Библиотека кодирования                   : LAME3.99
Примечание                               : Lbl: Hospital #: NHS290DD
Rip date                                 : 2016-05-27
Оригинал                                 : WEB
Ripping tool                             : EAC
Release type                             : Normal release
Catalog #                                : NHS290DD

Аудио
Формат                                   : MPEG Audio
Версия формата                           : Version 1
Профиль формата                          : Layer 3
Режим                                    : Joint stereo
Продолжительность                        : 5 м. 57 с.
Вид битрейта                             : Постоянный
Битрейт                                  : 320 Кбит/сек
Каналы                                   : 2 канала
Частота                                  : 44,1 КГц
Метод сжатия                             : С потерями
Размер потока                            : 13,6 Мбайт (100%)
Библиотека кодирования                   : LAME3.99
Настройки программы                      : -m j -V 4 -q 0 -lowpass 20.5
Язык                                     : English

Общее
Полное имя                               : D:\Music\Electronic\MP3\Various Artists\Hospital Mixtape S.P.Y (2016)\10. S.P.Y - Silent Wave.mp3
Формат                                   : MPEG Audio
Размер файла                             : 9,64 Мбайт
Продолжительность                        : 4 м. 12 с.
Режим общего битрейта                    : Постоянный
Общий поток                              : 320 Кбит/сек
Альбом                                   : Hospital Mixtape: S.P.Y
Трек                                     : Silent Wave
Трек/Положение                           : 10
Исполнитель                              : S.P.Y
Издатель                                 : Hospital
Жанр                                     : Drum & Bass
Дата записи                              : 2016-00-00
Библиотека кодирования                   : LAME3.99
Примечание                               : Lbl: Hospital #: NHS290DD
Rip date                                 : 2016-05-27
Оригинал                                 : WEB
Ripping tool                             : EAC
Release type                             : Normal release
Catalog #                                : NHS290DD

Аудио
Формат                                   : MPEG Audio
Версия формата                           : Version 1
Профиль формата                          : Layer 3
Режим                                    : Joint stereo
Продолжительность                        : 4 м. 12 с.
Вид битрейта                             : Постоянный
Битрейт                                  : 320 Кбит/сек
Каналы                                   : 2 канала
Частота                                  : 44,1 КГц
Метод сжатия                             : С потерями
Размер потока                            : 9,64 Мбайт (100%)
Библиотека кодирования                   : LAME3.99
Настройки программы                      : -m j -V 4 -q 0 -lowpass 20.5
Язык                                     : English

Общее
Полное имя                               : D:\Music\Electronic\MP3\Various Artists\Hospital Mixtape S.P.Y (2016)\11. MachineCode, Lockjaw - Cry Me.mp3
Формат                                   : MPEG Audio
Размер файла                             : 13,1 Мбайт
Продолжительность                        : 5 м. 44 с.
Режим общего битрейта                    : Постоянный
Общий поток                              : 320 Кбит/сек
Альбом                                   : Hospital Mixtape: S.P.Y
Трек                                     : Cry Me
Трек/Положение                           : 11
Исполнитель                              : MachineCode, Lockjaw
Издатель                                 : Hospital
Жанр                                     : Drum & Bass
Дата записи                              : 2016-00-00
Библиотека кодирования                   : LAME3.99
Примечание                               : Lbl: Hospital #: NHS290DD
Rip date                                 : 2016-05-27
Оригинал                                 : WEB
Ripping tool                             : EAC
Release type                             : Normal release
Catalog #                                : NHS290DD

Аудио
Формат                                   : MPEG Audio
Версия формата                           : Version 1
Профиль формата                          : Layer 3
Режим                                    : Joint stereo
Продолжительность                        : 5 м. 44 с.
Вид битрейта                             : Постоянный
Битрейт                                  : 320 Кбит/сек
Каналы                                   : 2 канала
Частота                                  : 44,1 КГц
Метод сжатия                             : С потерями
Размер потока                            : 13,1 Мбайт (100%)
Библиотека кодирования                   : LAME3.99
Настройки программы                      : -m j -V 4 -q 0 -lowpass 20.5
Язык                                     : English

Общее
Полное имя                               : D:\Music\Electronic\MP3\Various Artists\Hospital Mixtape S.P.Y (2016)\12. Noisia - Omnivore.mp3
Формат                                   : MPEG Audio
Размер файла                             : 11,2 Мбайт
Продолжительность                        : 4 м. 53 с.
Режим общего битрейта                    : Постоянный
Общий поток                              : 320 Кбит/сек
Альбом                                   : Hospital Mixtape: S.P.Y
Трек                                     : Omnivore
Трек/Положение                           : 12
Исполнитель                              : Noisia
Издатель                                 : Hospital
Жанр                                     : Drum & Bass
Дата записи                              : 2016-00-00
Библиотека кодирования                   : LAME3.99
Примечание                               : Lbl: Hospital #: NHS290DD
Rip date                                 : 2016-05-27
Оригинал                                 : WEB
Ripping tool                             : EAC
Release type                             : Normal release
Catalog #                                : NHS290DD

Аудио
Формат                                   : MPEG Audio
Версия формата                           : Version 1
Профиль формата                          : Layer 3
Режим                                    : Joint stereo
Продолжительность                        : 4 м. 53 с.
Вид битрейта                             : Постоянный
Битрейт                                  : 320 Кбит/сек
Каналы                                   : 2 канала
Частота                                  : 44,1 КГц
Метод сжатия                             : С потерями
Размер потока                            : 11,2 Мбайт (100%)
Библиотека кодирования                   : LAME3.99
Настройки программы                      : -m j -V 4 -q 0 -lowpass 20.5
Язык                                     : English

Общее
Полное имя                               : D:\Music\Electronic\MP3\Various Artists\Hospital Mixtape S.P.Y (2016)\13. Annix - Contraband.mp3
Формат                                   : MPEG Audio
Размер файла                             : 10,3 Мбайт
Продолжительность                        : 4 м. 30 с.
Режим общего битрейта                    : Постоянный
Общий поток                              : 320 Кбит/сек
Альбом                                   : Hospital Mixtape: S.P.Y
Трек                                     : Contraband
Трек/Положение                           : 13
Исполнитель                              : Annix
Издатель                                 : Hospital
Жанр                                     : Drum & Bass
Дата записи                              : 2016-00-00
Библиотека кодирования                   : LAME3.99
Примечание                               : Lbl: Hospital #: NHS290DD
Rip date                                 : 2016-05-27
Оригинал                                 : WEB
Ripping tool                             : EAC
Release type                             : Normal release
Catalog #                                : NHS290DD

Аудио
Формат                                   : MPEG Audio
Версия формата                           : Version 1
Профиль формата                          : Layer 3
Режим                                    : Joint stereo
Продолжительность                        : 4 м. 30 с.
Вид битрейта                             : Постоянный
Битрейт                                  : 320 Кбит/сек
Каналы                                   : 2 канала
Частота                                  : 44,1 КГц
Метод сжатия                             : С потерями
Размер потока                            : 10,3 Мбайт (100%)
Библиотека кодирования                   : LAME3.99
Настройки программы                      : -m j -V 4 -q 0 -lowpass 20.5
Язык                                     : English

Общее
Полное имя                               : D:\Music\Electronic\MP3\Various Artists\Hospital Mixtape S.P.Y (2016)\14. Whiney - Guardians.mp3
Формат                                   : MPEG Audio
Размер файла                             : 10,1 Мбайт
Продолжительность                        : 4 м. 25 с.
Режим общего битрейта                    : Постоянный
Общий поток                              : 320 Кбит/сек
Альбом                                   : Hospital Mixtape: S.P.Y
Трек                                     : Guardians
Трек/Положение                           : 14
Исполнитель                              : Whiney
Издатель                                 : Hospital
Жанр                                     : Drum & Bass
Дата записи                              : 2016-00-00
Библиотека кодирования                   : LAME3.99
Примечание                               : Lbl: Hospital #: NHS290DD
Rip date                                 : 2016-05-27
Оригинал                                 : WEB
Ripping tool                             : EAC
Release type                             : Normal release
Catalog #                                : NHS290DD

Аудио
Формат                                   : MPEG Audio
Версия формата                           : Version 1
Профиль формата                          : Layer 3
Режим                                    : Joint stereo
Продолжительность                        : 4 м. 25 с.
Вид битрейта                             : Постоянный
Битрейт                                  : 320 Кбит/сек
Каналы                                   : 2 канала
Частота                                  : 44,1 КГц
Метод сжатия                             : С потерями
Размер потока                            : 10,1 Мбайт (100%)
Библиотека кодирования                   : LAME3.99
Настройки программы                      : -m j -V 4 -q 0 -lowpass 20.5
Язык                                     : English

Общее
Полное имя                               : D:\Music\Electronic\MP3\Various Artists\Hospital Mixtape S.P.Y (2016)\15. PA - Battle of the Witts (Boosta & Atmos T Remix).mp3
Формат                                   : MPEG Audio
Размер файла                             : 11,9 Мбайт
Продолжительность                        : 5 м. 11 с.
Режим общего битрейта                    : Постоянный
Общий поток                              : 320 Кбит/сек
Альбом                                   : Hospital Mixtape: S.P.Y
Трек                                     : Battle of the Witts (Boosta & Atmos T Remix)
Трек/Положение                           : 15
Исполнитель                              : PA
Издатель                                 : Hospital
Жанр                                     : Drum & Bass
Дата записи                              : 2016-00-00
Библиотека кодирования                   : LAME3.99
Примечание                               : Lbl: Hospital #: NHS290DD
Rip date                                 : 2016-05-27
Оригинал                                 : WEB
Ripping tool                             : EAC
Release type                             : Normal release
Catalog #                                : NHS290DD

Аудио
Формат                                   : MPEG Audio
Версия формата                           : Version 1
Профиль формата                          : Layer 3
Режим                                    : Joint stereo
Продолжительность                        : 5 м. 12 с.
Вид битрейта                             : Постоянный
Битрейт                                  : 320 Кбит/сек
Каналы                                   : 2 канала
Частота                                  : 44,1 КГц
Метод сжатия                             : С потерями
Размер потока                            : 11,9 Мбайт (100%)
Библиотека кодирования                   : LAME3.99
Настройки программы                      : -m j -V 4 -q 0 -lowpass 20.5
Язык                                     : English

Общее
Полное имя                               : D:\Music\Electronic\MP3\Various Artists\Hospital Mixtape S.P.Y (2016)\16. Fred V & Grafix - Ultraviolet (S.P.Y Remix).mp3
Формат                                   : MPEG Audio
Размер файла                             : 11,3 Мбайт
Продолжительность                        : 4 м. 55 с.
Режим общего битрейта                    : Постоянный
Общий поток                              : 320 Кбит/сек
Альбом                                   : Hospital Mixtape: S.P.Y
Трек                                     : Ultraviolet (S.P.Y Remix)
Трек/Положение                           : 16
Исполнитель                              : Fred V & Grafix
Издатель                                 : Hospital
Жанр                                     : Drum & Bass
Дата записи                              : 2016-00-00
Библиотека кодирования                   : LAME3.99
Примечание                               : Lbl: Hospital #: NHS290DD
Rip date                                 : 2016-05-27
Оригинал                                 : WEB
Ripping tool                             : EAC
Release type                             : Normal release
Catalog #                                : NHS290DD

Аудио
Формат                                   : MPEG Audio
Версия формата                           : Version 1
Профиль формата                          : Layer 3
Режим                                    : Joint stereo
Продолжительность                        : 4 м. 56 с.
Вид битрейта                             : Постоянный
Битрейт                                  : 320 Кбит/сек
Каналы                                   : 2 канала
Частота                                  : 44,1 КГц
Метод сжатия                             : С потерями
Размер потока                            : 11,3 Мбайт (100%)
Библиотека кодирования                   : LAME3.99
Настройки программы                      : -m j -V 4 -q 0 -lowpass 20.5
Язык                                     : English

Общее
Полное имя                               : D:\Music\Electronic\MP3\Various Artists\Hospital Mixtape S.P.Y (2016)\17. Klax - Hotline.mp3
Формат                                   : MPEG Audio
Размер файла                             : 12,2 Мбайт
Продолжительность                        : 5 м. 20 с.
Режим общего битрейта                    : Постоянный
Общий поток                              : 320 Кбит/сек
Альбом                                   : Hospital Mixtape: S.P.Y
Трек                                     : Hotline
Трек/Положение                           : 17
Исполнитель                              : Klax
Издатель                                 : Hospital
Жанр                                     : Drum & Bass
Дата записи                              : 2016-00-00
Библиотека кодирования                   : LAME3.99
Примечание                               : Lbl: Hospital #: NHS290DD
Rip date                                 : 2016-05-27
Оригинал                                 : WEB
Ripping tool                             : EAC
Release type                             : Normal release
Catalog #                                : NHS290DD

Аудио
Формат                                   : MPEG Audio
Версия формата                           : Version 1
Профиль формата                          : Layer 3
Режим                                    : Joint stereo
Продолжительность                        : 5 м. 20 с.
Вид битрейта                             : Постоянный
Битрейт                                  : 320 Кбит/сек
Каналы                                   : 2 канала
Частота                                  : 44,1 КГц
Метод сжатия                             : С потерями
Размер потока                            : 12,2 Мбайт (100%)
Библиотека кодирования                   : LAME3.99
Настройки программы                      : -m j -V 4 -q 0 -lowpass 20.5
Язык                                     : English

Общее
Полное имя                               : D:\Music\Electronic\MP3\Various Artists\Hospital Mixtape S.P.Y (2016)\18. Dub Elements - Soulbringer.mp3
Формат                                   : MPEG Audio
Размер файла                             : 11,5 Мбайт
Продолжительность                        : 5 м. 1 с.
Режим общего битрейта                    : Постоянный
Общий поток                              : 320 Кбит/сек
Альбом                                   : Hospital Mixtape: S.P.Y
Трек                                     : Soulbringer
Трек/Положение                           : 18
Исполнитель                              : Dub Elements
Издатель                                 : Hospital
Жанр                                     : Drum & Bass
Дата записи                              : 2016-00-00
Библиотека кодирования                   : LAME3.99
Примечание                               : Lbl: Hospital #: NHS290DD
Rip date                                 : 2016-05-27
Оригинал                                 : WEB
Ripping tool                             : EAC
Release type                             : Normal release
Catalog #                                : NHS290DD

Аудио
Формат                                   : MPEG Audio
Версия формата                           : Version 1
Профиль формата                          : Layer 3
Режим                                    : Joint stereo
Продолжительность                        : 5 м. 1 с.
Вид битрейта                             : Постоянный
Битрейт                                  : 320 Кбит/сек
Каналы                                   : 2 канала
Частота                                  : 44,1 КГц
Метод сжатия                             : С потерями
Размер потока                            : 11,5 Мбайт (100%)
Библиотека кодирования                   : LAME3.99
Настройки программы                      : -m j -V 4 -q 0 -lowpass 20.5
Язык                                     : English

Общее
Полное имя                               : D:\Music\Electronic\MP3\Various Artists\Hospital Mixtape S.P.Y (2016)\19. Anile - Don't Let Me In.mp3
Формат                                   : MPEG Audio
Размер файла                             : 8,79 Мбайт
Продолжительность                        : 3 м. 50 с.
Режим общего битрейта                    : Постоянный
Общий поток                              : 320 Кбит/сек
Альбом                                   : Hospital Mixtape: S.P.Y
Трек                                     : Don't Let Me In
Трек/Положение                           : 19
Исполнитель                              : Anile
Издатель                                 : Hospital
Жанр                                     : Drum & Bass
Дата записи                              : 2016-00-00
Библиотека кодирования                   : LAME3.99
Примечание                               : Lbl: Hospital #: NHS290DD
Rip date                                 : 2016-05-27
Оригинал                                 : WEB
Ripping tool                             : EAC
Release type                             : Normal release
Catalog #                                : NHS290DD

Аудио
Формат                                   : MPEG Audio
Версия формата                           : Version 1
Профиль формата                          : Layer 3
Режим                                    : Joint stereo
Расширение режима                        : MS Stereo
Продолжительность                        : 3 м. 50 с.
Вид битрейта                             : Постоянный
Битрейт                                  : 320 Кбит/сек
Каналы                                   : 2 канала
Частота                                  : 44,1 КГц
Метод сжатия                             : С потерями
Размер потока                            : 8,79 Мбайт (100%)
Библиотека кодирования                   : LAME3.99
Настройки программы                      : -m j -V 4 -q 0 -lowpass 20.5
Язык                                     : English

Общее
Полное имя                               : D:\Music\Electronic\MP3\Various Artists\Hospital Mixtape S.P.Y (2016)\20. Digital - Deadline (S.P.Y Remix).mp3
Формат                                   : MPEG Audio
Размер файла                             : 13,4 Мбайт
Продолжительность                        : 5 м. 51 с.
Режим общего битрейта                    : Постоянный
Общий поток                              : 320 Кбит/сек
Альбом                                   : Hospital Mixtape: S.P.Y
Трек                                     : Deadline (S.P.Y Remix)
Трек/Положение                           : 20
Исполнитель                              : Digital
Издатель                                 : Hospital
Жанр                                     : Drum & Bass
Дата записи                              : 2016-00-00
Библиотека кодирования                   : LAME3.99
Примечание                               : Lbl: Hospital #: NHS290DD
Rip date                                 : 2016-05-27
Оригинал                                 : WEB
Ripping tool                             : EAC
Release type                             : Normal release
Catalog #                                : NHS290DD

Аудио
Формат                                   : MPEG Audio
Версия формата                           : Version 1
Профиль формата                          : Layer 3
Режим                                    : Joint stereo
Расширение режима                        : MS Stereo
Продолжительность                        : 5 м. 51 с.
Вид битрейта                             : Постоянный
Битрейт                                  : 320 Кбит/сек
Каналы                                   : 2 канала
Частота                                  : 44,1 КГц
Метод сжатия                             : С потерями
Размер потока                            : 13,4 Мбайт (100%)
Библиотека кодирования                   : LAME3.99
Настройки программы                      : -m j -V 4 -q 0 -lowpass 20.5
Язык                                     : English

Общее
Полное имя                               : D:\Music\Electronic\MP3\Various Artists\Hospital Mixtape S.P.Y (2016)\21. London Elektricity - Why Are We Here_ (S.P.Y Remix).mp3
Формат                                   : MPEG Audio
Размер файла                             : 11,5 Мбайт
Продолжительность                        : 5 м. 0 с.
Режим общего битрейта                    : Постоянный
Общий поток                              : 320 Кбит/сек
Альбом                                   : Hospital Mixtape: S.P.Y
Трек                                     : Why Are We Here? (S.P.Y Remix)
Трек/Положение                           : 21
Исполнитель                              : London Elektricity
Издатель                                 : Hospital
Жанр                                     : Drum & Bass
Дата записи                              : 2016-00-00
Библиотека кодирования                   : LAME3.99
Примечание                               : Lbl: Hospital #: NHS290DD
Rip date                                 : 2016-05-27
Оригинал                                 : WEB
Ripping tool                             : EAC
Release type                             : Normal release
Catalog #                                : NHS290DD

Аудио
Формат                                   : MPEG Audio
Версия формата                           : Version 1
Профиль формата                          : Layer 3
Режим                                    : Joint stereo
Продолжительность                        : 5 м. 1 с.
Вид битрейта                             : Постоянный
Битрейт                                  : 320 Кбит/сек
Каналы                                   : 2 канала
Частота                                  : 44,1 КГц
Метод сжатия                             : С потерями
Размер потока                            : 11,5 Мбайт (100%)
Библиотека кодирования                   : LAME3.99
Настройки программы                      : -m j -V 4 -q 0 -lowpass 20.5
Язык                                     : English

Общее
Полное имя                               : D:\Music\Electronic\MP3\Various Artists\Hospital Mixtape S.P.Y (2016)\22. Random Movement - In Space, No One Can Hear You Funk.mp3
Формат                                   : MPEG Audio
Размер файла                             : 12,2 Мбайт
Продолжительность                        : 5 м. 19 с.
Режим общего битрейта                    : Постоянный
Общий поток                              : 320 Кбит/сек
Альбом                                   : Hospital Mixtape: S.P.Y
Трек                                     : In Space, No One Can Hear You Funk
Трек/Положение                           : 22
Исполнитель                              : Random Movement
Издатель                                 : Hospital
Жанр                                     : Drum & Bass
Дата записи                              : 2016-00-00
Библиотека кодирования                   : LAME3.99
Примечание                               : Lbl: Hospital #: NHS290DD
Rip date                                 : 2016-05-27
Оригинал                                 : WEB
Ripping tool                             : EAC
Release type                             : Normal release
Catalog #                                : NHS290DD

Аудио
Формат                                   : MPEG Audio
Версия формата                           : Version 1
Профиль формата                          : Layer 3
Режим                                    : Joint stereo
Продолжительность                        : 5 м. 19 с.
Вид битрейта                             : Постоянный
Битрейт                                  : 320 Кбит/сек
Каналы                                   : 2 канала
Частота                                  : 44,1 КГц
Метод сжатия                             : С потерями
Размер потока                            : 12,2 Мбайт (100%)
Библиотека кодирования                   : LAME3.99
Настройки программы                      : -m j -V 4 -q 0 -lowpass 20.5
Язык                                     : English

Общее
Полное имя                               : D:\Music\Electronic\MP3\Various Artists\Hospital Mixtape S.P.Y (2016)\23. Break - Hope (feat. Celestine).mp3
Формат                                   : MPEG Audio
Размер файла                             : 10,4 Мбайт
Продолжительность                        : 4 м. 31 с.
Режим общего битрейта                    : Постоянный
Общий поток                              : 320 Кбит/сек
Альбом                                   : Hospital Mixtape: S.P.Y
Трек                                     : Hope (feat. Celestine)
Трек/Положение                           : 23
Исполнитель                              : Break
Издатель                                 : Hospital
Жанр                                     : Drum & Bass
Дата записи                              : 2016-00-00
Библиотека кодирования                   : LAME3.99
Примечание                               : Lbl: Hospital #: NHS290DD
Rip date                                 : 2016-05-27
Оригинал                                 : WEB
Catalog #                                : NHS290DD
Ripping tool                             : EAC
Release type                             : Normal release

Аудио
Формат                                   : MPEG Audio
Версия формата                           : Version 1
Профиль формата                          : Layer 3
Режим                                    : Joint stereo
Продолжительность                        : 4 м. 31 с.
Вид битрейта                             : Постоянный
Битрейт                                  : 320 Кбит/сек
Каналы                                   : 2 канала
Частота                                  : 44,1 КГц
Метод сжатия                             : С потерями
Размер потока                            : 10,4 Мбайт (100%)
Библиотека кодирования                   : LAME3.99
Настройки программы                      : -m j -V 4 -q 0 -lowpass 20.5
Язык                                     : English

Общее
Полное имя                               : D:\Music\Electronic\MP3\Various Artists\Hospital Mixtape S.P.Y (2016)\24. Muffler - Valentine.mp3
Формат                                   : MPEG Audio
Размер файла                             : 7,02 Мбайт
Продолжительность                        : 3 м. 3 с.
Режим общего битрейта                    : Постоянный
Общий поток                              : 320 Кбит/сек
Альбом                                   : Hospital Mixtape: S.P.Y
Трек                                     : Valentine
Трек/Положение                           : 24
Исполнитель                              : Muffler
Издатель                                 : Hospital
Жанр                                     : Drum & Bass
Дата записи                              : 2016-00-00
Библиотека кодирования                   : LAME3.99
Примечание                               : Lbl: Hospital #: NHS290DD
Rip date                                 : 2016-05-27
Оригинал                                 : WEB
Ripping tool                             : EAC
Release type                             : Normal release
Catalog #                                : NHS290DD

Аудио
Формат                                   : MPEG Audio
Версия формата                           : Version 1
Профиль формата                          : Layer 3
Режим                                    : Joint stereo
Продолжительность                        : 3 м. 3 с.
Вид битрейта                             : Постоянный
Битрейт                                  : 320 Кбит/сек
Каналы                                   : 2 канала
Частота                                  : 44,1 КГц
Метод сжатия                             : С потерями
Размер потока                            : 7,01 Мбайт (100%)
Библиотека кодирования                   : LAME3.99
Настройки программы                      : -m j -V 4 -q 0 -lowpass 20.5
Язык                                     : English

Общее
Полное имя                               : D:\Music\Electronic\MP3\Various Artists\Hospital Mixtape S.P.Y (2016)\25. BCee - Back to the Street (S.P.Y Remix).mp3
Формат                                   : MPEG Audio
Размер файла                             : 11,3 Мбайт
Продолжительность                        : 4 м. 57 с.
Режим общего битрейта                    : Постоянный
Общий поток                              : 320 Кбит/сек
Альбом                                   : Hospital Mixtape: S.P.Y
Трек                                     : Back to the Street (S.P.Y Remix)
Трек/Положение                           : 25
Исполнитель                              : BCee
Издатель                                 : Hospital
Жанр                                     : Drum & Bass
Дата записи                              : 2016-00-00
Библиотека кодирования                   : LAME3.99
Примечание                               : Lbl: Hospital #: NHS290DD
Rip date                                 : 2016-05-27
Оригинал                                 : WEB
Ripping tool                             : EAC
Release type                             : Normal release
Catalog #                                : NHS290DD

Аудио
Формат                                   : MPEG Audio
Версия формата                           : Version 1
Профиль формата                          : Layer 3
Режим                                    : Joint stereo
Продолжительность                        : 4 м. 57 с.
Вид битрейта                             : Постоянный
Битрейт                                  : 320 Кбит/сек
Каналы                                   : 2 канала
Частота                                  : 44,1 КГц
Метод сжатия                             : С потерями
Размер потока                            : 11,3 Мбайт (100%)
Библиотека кодирования                   : LAME3.99
Настройки программы                      : -m j -V 4 -q 0 -lowpass 20.5
Язык                                     : English

Общее
Полное имя                               : D:\Music\Electronic\MP3\Various Artists\Hospital Mixtape S.P.Y (2016)\26. Lenzman - Cherry Blossom.mp3
Формат                                   : MPEG Audio
Размер файла                             : 12,1 Мбайт
Продолжительность                        : 5 м. 16 с.
Режим общего битрейта                    : Постоянный
Общий поток                              : 320 Кбит/сек
Альбом                                   : Hospital Mixtape: S.P.Y
Трек                                     : Cherry Blossom
Трек/Положение                           : 26
Исполнитель                              : Lenzman
Издатель                                 : Hospital
Жанр                                     : Drum & Bass
Дата записи                              : 2016-00-00
Библиотека кодирования                   : LAME3.99
Примечание                               : Lbl: Hospital #: NHS290DD
Rip date                                 : 2016-05-27
Оригинал                                 : WEB
Ripping tool                             : EAC
Release type                             : Normal release
Catalog #                                : NHS290DD

Аудио
Формат                                   : MPEG Audio
Версия формата                           : Version 1
Профиль формата                          : Layer 3
Режим                                    : Joint stereo
Расширение режима                        : MS Stereo
Продолжительность                        : 5 м. 16 с.
Вид битрейта                             : Постоянный
Битрейт                                  : 320 Кбит/сек
Каналы                                   : 2 канала
Частота                                  : 44,1 КГц
Метод сжатия                             : С потерями
Размер потока                            : 12,1 Мбайт (100%)
Библиотека кодирования                   : LAME3.99
Настройки программы                      : -m j -V 4 -q 0 -lowpass 20.5
Язык                                     : English

Общее
Полное имя                               : D:\Music\Electronic\MP3\Various Artists\Hospital Mixtape S.P.Y (2016)\27. Lisp - Got Me Down.mp3
Формат                                   : MPEG Audio
Размер файла                             : 11,2 Мбайт
Продолжительность                        : 4 м. 52 с.
Режим общего битрейта                    : Постоянный
Общий поток                              : 320 Кбит/сек
Альбом                                   : Hospital Mixtape: S.P.Y
Трек                                     : Got Me Down
Трек/Положение                           : 27
Исполнитель                              : Lisp
Издатель                                 : Hospital
Жанр                                     : Drum & Bass
Дата записи                              : 2016-00-00
Библиотека кодирования                   : LAME3.99
Примечание                               : Lbl: Hospital #: NHS290DD
Rip date                                 : 2016-05-27
Оригинал                                 : WEB
Ripping tool                             : EAC
Release type                             : Normal release
Catalog #                                : NHS290DD

Аудио
Формат                                   : MPEG Audio
Версия формата                           : Version 1
Профиль формата                          : Layer 3
Режим                                    : Joint stereo
Продолжительность                        : 4 м. 52 с.
Вид битрейта                             : Постоянный
Битрейт                                  : 320 Кбит/сек
Каналы                                   : 2 канала
Частота                                  : 44,1 КГц
Метод сжатия                             : С потерями
Размер потока                            : 11,2 Мбайт (100%)
Библиотека кодирования                   : LAME3.99
Настройки программы                      : -m j -V 4 -q 0 -lowpass 20.5
Язык                                     : English

Общее
Полное имя                               : D:\Music\Electronic\MP3\Various Artists\Hospital Mixtape S.P.Y (2016)\28. Larigold - Don't Stop.mp3
Формат                                   : MPEG Audio
Размер файла                             : 13,2 Мбайт
Продолжительность                        : 5 м. 45 с.
Режим общего битрейта                    : Постоянный
Общий поток                              : 320 Кбит/сек
Альбом                                   : Hospital Mixtape: S.P.Y
Трек                                     : Don't Stop
Трек/Положение                           : 28
Исполнитель                              : Larigold
Издатель                                 : Hospital
Жанр                                     : Drum & Bass
Дата записи                              : 2016-00-00
Библиотека кодирования                   : LAME3.99
Примечание                               : Lbl: Hospital #: NHS290DD
Rip date                                 : 2016-05-27
Оригинал                                 : WEB
Ripping tool                             : EAC
Release type                             : Normal release
Catalog #                                : NHS290DD

Аудио
Формат                                   : MPEG Audio
Версия формата                           : Version 1
Профиль формата                          : Layer 3
Режим                                    : Joint stereo
Продолжительность                        : 5 м. 45 с.
Вид битрейта                             : Постоянный
Битрейт                                  : 320 Кбит/сек
Каналы                                   : 2 канала
Частота                                  : 44,1 КГц
Метод сжатия                             : С потерями
Размер потока                            : 13,2 Мбайт (100%)
Библиотека кодирования                   : LAME3.99
Настройки программы                      : -m j -V 4 -q 0 -lowpass 20.5
Язык                                     : English

Общее
Полное имя                               : D:\Music\Electronic\MP3\Various Artists\Hospital Mixtape S.P.Y (2016)\29. Unreal, S.P.Y - Enduro.mp3
Формат                                   : MPEG Audio
Размер файла                             : 13,1 Мбайт
Продолжительность                        : 5 м. 44 с.
Режим общего битрейта                    : Постоянный
Общий поток                              : 320 Кбит/сек
Альбом                                   : Hospital Mixtape: S.P.Y
Трек                                     : Enduro
Трек/Положение                           : 29
Исполнитель                              : Unreal, S.P.Y
Издатель                                 : Hospital
Жанр                                     : Drum & Bass
Дата записи                              : 2016-00-00
Библиотека кодирования                   : LAME3.99
Примечание                               : Lbl: Hospital #: NHS290DD
Rip date                                 : 2016-05-27
Оригинал                                 : WEB
Ripping tool                             : EAC
Release type                             : Normal release
Catalog #                                : NHS290DD

Аудио
Формат                                   : MPEG Audio
Версия формата                           : Version 1
Профиль формата                          : Layer 3
Режим                                    : Joint stereo
Продолжительность                        : 5 м. 44 с.
Вид битрейта                             : Постоянный
Битрейт                                  : 320 Кбит/сек
Каналы                                   : 2 канала
Частота                                  : 44,1 КГц
Метод сжатия                             : С потерями
Размер потока                            : 13,1 Мбайт (100%)
Библиотека кодирования                   : LAME3.99
Настройки программы                      : -m j -V 4 -q 0 -lowpass 20.5
Язык                                     : English

Общее
Полное имя                               : D:\Music\Electronic\MP3\Various Artists\Hospital Mixtape S.P.Y (2016)\30. Keeno - Eos.mp3
Формат                                   : MPEG Audio
Размер файла                             : 7,89 Мбайт
Продолжительность                        : 3 м. 26 с.
Режим общего битрейта                    : Постоянный
Общий поток                              : 320 Кбит/сек
Альбом                                   : Hospital Mixtape: S.P.Y
Трек                                     : Eos
Трек/Положение                           : 30
Исполнитель                              : Keeno
Издатель                                 : Hospital
Жанр                                     : Drum & Bass
Дата записи                              : 2016-00-00
Библиотека кодирования                   : LAME3.99
Примечание                               : Lbl: Hospital #: NHS290DD
Rip date                                 : 2016-05-27
Оригинал                                 : WEB
Ripping tool                             : EAC
Release type                             : Normal release
Catalog #                                : NHS290DD

Аудио
Формат                                   : MPEG Audio
Версия формата                           : Version 1
Профиль формата                          : Layer 3
Режим                                    : Joint stereo
Продолжительность                        : 3 м. 26 с.
Вид битрейта                             : Постоянный
Битрейт                                  : 320 Кбит/сек
Каналы                                   : 2 канала
Частота                                  : 44,1 КГц
Метод сжатия                             : С потерями
Размер потока                            : 7,88 Мбайт (100%)
Библиотека кодирования                   : LAME3.99
Настройки программы                      : -m j -V 4 -q 0 -lowpass 20.5
Язык                                     : English

Общее
Полное имя                               : D:\Music\Electronic\MP3\Various Artists\Hospital Mixtape S.P.Y (2016)\31. S.P.Y - What the Future Holds (Etherwood Remix).mp3
Формат                                   : MPEG Audio
Размер файла                             : 10,7 Мбайт
Продолжительность                        : 4 м. 41 с.
Режим общего битрейта                    : Постоянный
Общий поток                              : 320 Кбит/сек
Альбом                                   : Hospital Mixtape: S.P.Y
Трек                                     : What the Future Holds (Etherwood Remix)
Трек/Положение                           : 31
Исполнитель                              : S.P.Y
Издатель                                 : Hospital
Жанр                                     : Drum & Bass
Дата записи                              : 2016-00-00
Библиотека кодирования                   : LAME3.99
Примечание                               : Lbl: Hospital #: NHS290DD
Rip date                                 : 2016-05-27
Оригинал                                 : WEB
Ripping tool                             : EAC
Release type                             : Normal release
Catalog #                                : NHS290DD

Аудио
Формат                                   : MPEG Audio
Версия формата                           : Version 1
Профиль формата                          : Layer 3
Режим                                    : Joint stereo
Расширение режима                        : MS Stereo
Продолжительность                        : 4 м. 41 с.
Вид битрейта                             : Постоянный
Битрейт                                  : 320 Кбит/сек
Каналы                                   : 2 канала
Частота                                  : 44,1 КГц
Метод сжатия                             : С потерями
Размер потока                            : 10,7 Мбайт (100%)
Библиотека кодирования                   : LAME3.99
Настройки программы                      : -m j -V 4 -q 0 -lowpass 20.5
Язык                                     : English

Общее
Полное имя                               : D:\Music\Electronic\MP3\Various Artists\Hospital Mixtape S.P.Y (2016)\32. S.P.Y - Hospital Mixtape_ S.P.Y (Continuous DJ Mix).mp3
Формат                                   : MPEG Audio
Размер файла                             : 135 Мбайт
Продолжительность                        : 58 м.
Режим общего битрейта                    : Постоянный
Общий поток                              : 320 Кбит/сек
Альбом                                   : Hospital Mixtape: S.P.Y (NHS290)
Трек                                     : Hospital Mixtape: S.P.Y (Continuous DJ Mix)
Трек/Положение                           : 32
Исполнитель                              : S.P.Y
Издатель                                 : Hospital Records
Жанр                                     : Drum & Bass
Дата записи                              : 2016
Библиотека кодирования                   : LAME3.98.2
Обложка                                  : Yes
Тип обложки                              : Cover (front)
MIME-тип обложки                         : image/jpg
Текст песен                              : Label: Hospital Records / Catalog#: NHS290 / Format: WEB / Release Date: 27 May 2016 / Genre: Drum & Bass / Quality: 320 kbps / 44100 Hz / Joint Stereo /  / New Tunes Music Exclusive For freakENERGY
TYER                                     : 2016

Аудио
Формат                                   : MPEG Audio
Версия формата                           : Version 1
Профиль формата                          : Layer 3
Режим                                    : Joint stereo
Продолжительность                        : 58 м.
Вид битрейта                             : Постоянный
Битрейт                                  : 320 Кбит/сек
Каналы                                   : 2 канала
Частота                                  : 44,1 КГц
Метод сжатия                             : С потерями
Размер потока                            : 134 Мбайт (100%)
Библиотека кодирования                   : LAME3.98.2

Детали торрента:
Название:VA - Hospital Mixtape: S.P.Y (2016) [MP3|320 кб/с] <Drum & Bass>
Дата добавления:29 Май 2016 13:35:20
Размер:477 MB
Раздают:1
Качают:0
Форум:Drum'n'Bass, Jungle, Breaks, Breakbeat, Dubstep

All rights reserved © 2015-2018