TORRENTS43.COM

Скачать Сверхъестественное / Supernatural (2005-2008) BDRemux [VC-1] (сезоны 1-3, дополнительные материалы) NovaFilm, студия Кравец


Сверхъестественное / Supernatural (2005-2008) BDRemux [VC-1] (сезоны 1-3, дополнительные материалы)
Производство: США / Kripke Enterprises, Warner Bros. Television, Wonderland Sound and Vision
Жанр: ужасы, фэнтези, драма

Режиссер: Роберт Сингер, Филип Сгриккиа, Ким Мэннерс
Актеры: Джаред Падалеки, Дженсен Эклс, Джим Бивер, Миша Коллинз, Марк Шеппард, Марк Пеллегрино, Женевьев Падалеки, Кэти Кэссиди, Джеймс Патрик Стюарт, Саманта Феррис и др.

Описание:
Сериал рассказывает о приключениях братьев Сэма и Дина Винчестеров, которые путешествуют по Соединённым Штатам на чёрном автомобиле Chevrolet Impala 1967 года, расследуют паранормальные явления, многие из которых основаны на американских городских легендах и фольклоре, и сражаются с порождениями зла, такими как демоны и призраки.



Продолжительность: 4x ~00:10:00, 7x ~00:02:00, 7x ~00:05:00
Качество видео: BDRemux
Перевод: Многоголосый закадровый, профессиональный - NovaFilm, студия Кравец
Вид субтитров: вшитые отключаемые
Язык субтитров: русский, английский

Видео: VC-1, 720x480 (4:3), ~5 mb/s
Аудио Rus: AC-3, 48,0 kHz, 2 ch, 192 kb/s, CBR — многоголосый закадровый
Аудио Eng: AC-3, 48,0 kHz, 2 ch, 192 kb/s, CBR — оригинал

Mediainfo:

Код: выделить все

General
Unique ID                   : 182494791501324179911806449656136425029 (0x894B37E6BFEA6777AED1F5C565FB5E45)
Complete name               : F:\EXTRAS\BDRemux 480p\RUS\Ghostfacers Pilot BDRemux 480p Rus Eng Subs by Stiles RG SerialS.mkv
Format                      : Matroska
Format version              : Version 4 / Version 2
File size                   : 618 MiB
Duration                    : 16mn 3s
Overall bit rate            : 5 386 Kbps
Movie name                  : Ghostfacers Pilot BDRemux 480p Rus Eng Subs by Stiles RG SerialS
Encoded date                : UTC 2016-06-09 12:14:38
Writing application         : mkvmerge v7.9.0 ('Birds') 64bit
Writing library             : libebml v1.3.1 + libmatroska v1.4.2
DURATION                    : 00:16:02.010000000
NUMBER_OF_FRAMES            : 238
NUMBER_OF_BYTES             : 16276
_STATISTICS_WRITING_APP     : mkvmerge v7.9.0 ('Birds') 64bit
_STATISTICS_WRITING_DATE_UT : 2016-06-09 12:14:38
_STATISTICS_TAGS            : BPS DURATION NUMBER_OF_FRAMES NUMBER_OF_BYTES

Video
ID                          : 1
Format                      : VC-1
Format profile              : Advanced@L2
Codec ID                    : V_MS/VFW/FOURCC / WVC1
Codec ID/Hint               : Microsoft
Duration                    : 16mn 3s
Bit rate                    : 4 895 Kbps
Width                       : 720 pixels
Height                      : 480 pixels
Display aspect ratio        : 4:3
Frame rate mode             : Constant
Frame rate                  : 29.970 fps
Standard                    : NTSC
Color space                 : YUV
Chroma subsampling          : 4:2:0
Bit depth                   : 8 bits
Scan type                   : Progressive
Scan order                  : Bottom Field First
Compression mode            : Lossy
Bits/(Pixel*Frame)          : 0.473
Stream size                 : 562 MiB (91%)
Language                    : English
Default                     : Yes
Forced                      : No

Audio #1
ID                          : 2
Format                      : AC-3
Format/Info                 : Audio Coding 3
Mode extension              : CM (complete main)
Format settings, Endianness : Big
Codec ID                    : A_AC3
Duration                    : 16mn 3s
Bit rate mode               : Constant
Bit rate                    : 192 Kbps
Channel(s)                  : 2 channels
Channel positions           : Front: L R
Sampling rate               : 48.0 KHz
Compression mode            : Lossy
Stream size                 : 22.0 MiB (4%)
Title                       : LostFilm
Language                    : Russian
Default                     : Yes
Forced                      : No

Audio #2
ID                          : 3
Format                      : AC-3
Format/Info                 : Audio Coding 3
Format profile              : Dolby Digital
Mode extension              : CM (complete main)
Format settings, Endianness : Big
Codec ID                    : A_AC3
Duration                    : 16mn 3s
Bit rate mode               : Constant
Bit rate                    : 192 Kbps
Channel(s)                  : 2 channels
Channel positions           : Front: L R
Sampling rate               : 48.0 KHz
Compression mode            : Lossy
Delay relative to video     : 33ms
Stream size                 : 22.0 MiB (4%)
Language                    : English
Default                     : No
Forced                      : No

Text #1
ID                          : 4
Format                      : UTF-8
Codec ID                    : S_TEXT/UTF8
Codec ID/Info               : UTF-8 Plain Text
Language                    : Russian
Default                     : No
Forced                      : No

Text #2
ID                          : 5
Format                      : PGS
Muxing mode                 : zlib
Codec ID                    : S_HDMV/PGS
Codec ID/Info               : Picture based subtitle format used on BDs/HD-DVDs
Language                    : English
Default                     : No
Forced                      : No

Бонусы


Приколы со съёмок (Gag Reels, Bloopers) сезонов 1-3: Тут присутствуют неудавшиеся, хотя как посмотреть, дубли.
Сезон 1: Хотите поднять настроение, увидеть смешные ситуации на съемках сериала, убедиться еще раз, что Джаред и Дженсен не упустят случая подшутить? Тогда это видео для вас.
Сезон 2: Забавные сценки "по ту сторону камеры", происходившие во время съемок 2-го сезона Supernatural. Дженсен и Джаред – известные мастера поднять настроение себе и другим.
Сезон 3: У самого трагичного сезона получились самые смешные гэги. Может, потому что здесь слишком много постановочных моментов, но, скорее всего, всему виной изобретательность Джареда и Дженсена.

День из жизни Джареда и Дженсена (A Day in the Life of Jared and Jensen): Один день из жизни Джареда и Дженсена. Камера в течение дня следует за актерами, начиная от их вагончиков, в которых они обитают в Ванкувере, заглядывая в гримерку, потом на съемочную площадку и т.д. и т.п. Вы увидите, как снимается эпизод, чем занимаются актеры в свободные минуты (которых почти нет, судя по плотному расписанию дня). Понятное дело, в течение всей записи шутки от Дженсена и Джареда.

Мини-выпуск "Импала - взгляд изнутри": Лишь одна представительница слабого пола смогла завоевать сердца всех без исключения суперами пришибленных. Каждое ее появление заставляет зрителей замереть, завороженно глядя на экран, при звуках ее мурлыкающего голоса, даже самый мрачный из фанов расплывается в блаженной улыбке. Она единственная, к кому не ревнует старшего из ныне живущих Винчестеров вся женская половина зрительской аудитории. Да, она немолода, но все также прекрасна и элегантна, и даст сто очков вперед новомодным красоткам. Давайте приглядимся к ней поближе... Итак, просим любить и жаловать: любимая женщина Дина Винчестера - Шевроле Импала 1967-го года выпуска.

Пилотный выпуск "псевдо-сериала" - Укротители Духов (Ghostfacers): Бесстрашные охотники за приведениями, несравненные Эд и Гарри, а также их соратники пытались заявить миру о своем существовании. Из Пилотного эпизода их программы вы узнаете о том, как из «Адских псов» они превратились в умудренных опытом «Укротителей духов», о том, что эти титаны борьбы с нечистью думают о братьях Винчестерах, и о том, чего же боятся не знающие страха борцы с силами зла.

Вырезанные сцены 1-го сезона

Допы ко 2-му сезону: Взгляд изнутри Части 1 и 2 и Супернатуралы: За кадром;

Две фичуретки-разборы серий детально к 8-му и 10-му эпизодам 3-го сезона

Доп. информация:

Транскрипт русских субтитров (на слух) к приколам со съёмок к сезонам 1-2: Stiles

Синхронизация русских дорожек ко всем допам и сборка релиза: Stiles
Скриншоты:


Все релизы «Сверхъестественное / Supernatural» на Torrents43.com

Смотреть Online

http://moonwalk.cc/video/2a49a22bf3961645/iframe
Детали торрента:
Название:Сверхъестественное / Supernatural (2005-2008) BDRemux [VC-1] (сезоны 1-3, дополнительные материалы) NovaFilm, студия Кравец
Дата добавления:13 Июн 2016 16:13:00
Размер:2,83 GB
Раздают:
Качают:0
Форум:Сверхъестественное / Supernatural

All rights reserved © 2015-2018