TORRENTS43.COM

Скачать Голограмма для короля / A Hologram for the King (2016) WEB-DL [1080p] ATV


Голограмма для короля / A Hologram for the King (2016) WEB-DL [1080p] ATV
-

Год выпуска: 2016
Производство: Великобритания, Франция, Германия, США, Мексика
Жанр: Комедия, драма
Продолжительность: 01:33:44

Перевод: Дублированный (iTunes)
Субтитры: Нет
Режиссер: Том Тыквер
Актеры: Том Хэнкс, Александр Блэк, Сарита Чоудри, Сидсе Бабетт Кнудсен, Трэйси Фэирэуэй, Джейн Перри, Том Скеррит, Михаэль Бараль, Льюис Райнер, Александр Молкентин

Мировая премьера: 20 апреля 2016



Описание: Алан Клей — муж, отец, бизнесмен. Но его бизнес терпит крах, его брак трещит по швам, и он не знает, где взять деньги на оплату обучения дочери. Чтобы избежать банкротства и разорвать замкнутый круг, Клей отправляется в Саудовскую Аравию, где он надеется продвинуть свой дерзкий технологический проект. Во время томительного ожидания встречи с королем Алан познает скрытые тайны арабского мира, которые преображают реальность, подобно голограмме. Никто не подозревал, чем обернется это путешествие к Красному морю…
Качество: WEB-DL 1080p
Контейнер: M4V
Видео: H.264, 1920x804, 2.40:1, 4 476 Kbps, 25.000 fps

Аудио 1: Русский/Дублированный (iTunes), AAC / 2.0 / 157 Kbps / 48.0 KHz
Аудио 2: Русский/Дублированный (iTunes), AC-3 / 5.1 / 384 Kbps / 48.0 KHz

iTunes Meta Tags

Код:

Sort Name: Hologram for the King
XID: Apple:vendor_id:2016-771067
contentID: 1102499262
Copyright: © Hologram for the King 2016 Hologram for the King Ltd. All Rights Reserved. Artwork & Supplementary Materials 2016 Roadside Attractions LLC. All Rights Reserved.
Screenwriters: Том Тыквер, Дэйв Эггерс
Producers: Штефан Арндт, Гари Гоэцман, Аркадий Голубович
Director: Том Тыквер
Cast: Том Хэнкс, Александр Блэк, Сарита Чоудри, Сидсе Бабетт Кнудсен, Трэйси Фэирэуэй, Джейн Перри, Том Скеррит, Михаэль Бараль, Льюис Райнер, Александр Молкентин, Валерий Сторожик, Иван Калинин, Елена Харитонова, Ирина Савина, Татьяна Манетина
Studio: 22h22, Playtone, Kasban-Film Tanger
Rating: 5
Long Description: Алан Клей - муж, отец, бизнесмен. Но его бизнес терпит крах, его брак трещит по швам, и он не знает, где взять деньги на оплату обучения дочери. Чтобы избежать банкротства и разорвать замкнутый круг, Клей отправляется в Саудовскую Аравию, где он надеется продвинуть свой дерзкий технологический проект. Во время томительного ожидания встречи с королем Алан познает скрытые тайны арабского мира, которые преображают реальность, подобно голограмме. Никто не подозревал, чем обернется это путешествие к Красному морю...
Description: Алан Клей - муж, отец, бизнесмен. Но его бизнес терпит крах, его брак трещит по швам, и он не знает, где взять деньги на оплату обучения дочери. Чтобы избежать банкротства и разорвать замкнутый круг, Клей отправляется в Саудовскую Аравию, где он надеется продвинуть свой дерзкий технологический проект. Во время томительного ожидания встречи с королем Алан познает скрытые тайны арабского мира, которые преображают реальность, подобно голограмме. Никто не подозревал, чем обернется это путешествие к Красному морю...
Release Date: 2016-04-20T08:00:00Z
Genre: Comedy
Artist: Tom Tykwer
Name: A Hologram for the King

MediaInfo

Код:

General
Complete name : /Users/imac/HandBrake/A.Hologram.for.the.King.WEB-DL.1080p.m4v
Format : MPEG-4
Codec ID : M4V
File size : 3.29 GiB
Duration : 1h 33mn
Overall bit rate mode : Variable
Overall bit rate : 5 026 Kbps
Movie name : A Hologram for the King
Performer : Tom Tykwer
Director : Том Тыквер
Actor : Том Хэнкс / Александр Блэк / Сарита Чоудри / Сидсе Бабетт Кнудсен / Трэйси Фэирэуэй / Джейн Перри / Том Скеррит / Михаэль Бараль / Льюис Райнер / Александр Молкентин / Валерий Сторожик / Иван Калинин / Елена Харитонова / Ирина Савина / Татьяна Манетина
Screenplay by : Том Тыквер / Дэйв Эггерс
Producer : Штефан Арндт / Гари Гоэцман / Аркадий Голубович
Production studio : 22h22, Playtone, Kasban-Film Tanger
Genre : Comedy
ContentType : Short Film
Description : Алан Клей - муж, отец, бизнесмен. Но его бизнес терпит крах, его брак трещит по швам, и он не знает, где взять деньги на оплату обучения дочери. Чтобы избежать банкротства и разорвать замкнутый круг, Клей отправляется в Саудовскую Аравию, где он надеется продвинуть свой дерзкий технологический проект. Во время томительного ожидания встречи с королем Алан познает скрытые тайны арабского мира, которые преображают реальность, подобно голограмме. Никто не подозревал, чем обернется это путешествие к Красному морю...
Recorded date : UTC 2016-04-20 08:00:00
Encoded date : UTC 2016-06-22 10:35:00
Tagged date : UTC 2016-06-22 10:36:17
Copyright : © Hologram for the King 2016 Hologram for the King Ltd. All Rights Reserved. Artwork & Supplementary Materials 2016 Roadside Attractions LLC. All Rights Reserved.
Cover : Yes
Rating : None
Title/Sort : Hologram for the King
LongDescription : Алан Клей - муж, отец, бизнесмен. Но его бизнес терпит крах, его брак трещит по швам, и он не знает, где взять деньги на оплату обучения дочери. Чтобы избежать банкротства и разорвать замкнутый круг, Клей отправляется в Саудовскую Аравию, где он надеется продвинуть свой дерзкий технологический проект. Во время томительного ожидания встречи с королем Алан познает скрытые тайны арабского мира, которые преображают реальность, подобно голограмме. Никто не подозревал, чем обернется это путешествие к Красному морю...
AppleStoreCatalogID : 1102499262
Vendor : Apple:vendor_id:2016-771067
ContentRating : mpaa|R|400|

Video #1
ID : 1
Format : AVC
Format/Info : Advanced Video Codec
Format profile : High@L4
Format settings, CABAC : Yes
Format settings, ReFrames : 5 frames
Codec ID : avc1
Codec ID/Info : Advanced Video Coding
Duration : 1h 33mn
Bit rate : 4 476 Kbps
Width : 1 920 pixels
Height : 804 pixels
Display aspect ratio : 2.40:1
Frame rate mode : Constant
Frame rate : 25.000 fps
Color space : YUV
Chroma subsampling : 4:2:0
Bit depth : 8 bits
Scan type : Progressive
Bits/(Pixel*Frame) : 0.116
Stream size : 2.93 GiB (89%)
Title : Main Program
Language : English
Encoded date : UTC 2016-06-22 10:35:00
Tagged date : UTC 2016-06-22 10:35:05
Color range : Limited
Color primaries : BT.709
Transfer characteristics : BT.709
Matrix coefficients : BT.709

Video #2
ID : 5
Format : JPEG
Codec ID : jpeg
Duration : 1h 33mn
Bit rate mode : Variable
Bit rate : 1 051 bps
Width : 640 pixels
Height : 268 pixels
Display aspect ratio : 2.40:1
Frame rate mode : Variable
Frame rate : 0.003 fps
Minimum frame rate : 0.002 fps
Maximum frame rate : 0.003 fps
Color space : YUV
Chroma subsampling : 4:2:0
Bit depth : 8 bits
Compression mode : Lossy
Bits/(Pixel*Frame) : 2.043
Stream size : 684 KiB (0%)
Title : Chapter Images
Language : English
Encoded date : UTC 2016-06-22 10:35:12
Tagged date : UTC 2016-06-22 10:35:12

Audio #1
ID : 2
Format : AAC
Format/Info : Advanced Audio Codec
Format profile : LC
Codec ID : 40
Duration : 1h 33mn
Bit rate mode : Variable
Bit rate : 157 Kbps
Maximum bit rate : 234 Kbps
Channel(s) : 2 channels
Channel positions : Front: L R
Sampling rate : 48.0 KHz
Compression mode : Lossy
Stream size : 105 MiB (3%)
Title : Russian Stereo
Language : Russian
Encoded date : UTC 2016-06-22 10:35:00
Tagged date : UTC 2016-06-22 10:35:06

Audio #2
ID : 3
Format : AC-3
Format/Info : Audio Coding 3
Mode extension : CM (complete main)
Format settings, Endianness : Big
Codec ID : ac-3
Duration : 1h 33mn
Bit rate mode : Constant
Bit rate : 384 Kbps
Channel(s) : 6 channels
Channel positions : Front: L C R, Side: L R, LFE
Sampling rate : 48.0 KHz
Bit depth : 16 bits
Compression mode : Lossy
Stream size : 257 MiB (8%)
Title : Russian DD 5.1
Language : Russian
Encoded date : UTC 2016-06-22 10:35:00
Tagged date : UTC 2016-06-22 10:35:05

Menu #1
00:00:00.000 : Глава 1
00:05:58.600 : Глава 2
00:11:17.840 : Глава 3
00:16:37.040 : Глава 4
00:22:23.880 : Глава 5
00:27:41.400 : Глава 6
00:33:24.000 : Глава 7
00:39:02.920 : Глава 8
00:45:11.680 : Глава 9
00:50:17.640 : Глава 10
00:56:14.800 : Глава 11
01:02:13.560 : Глава 12
01:07:39.600 : Глава 13
01:13:21.240 : Глава 14
01:18:55.680 : Глава 15
01:23:58.560 : Глава 16

Menu #2
ID : 4
Codec ID : text
Duration : 1h 33mn
Language : English
Encoded date : UTC 2016-06-22 10:35:07
Tagged date : UTC 2016-06-22 10:35:07
00:00:00.000 : Глава 1
00:05:58.600 : Глава 2
00:11:17.840 : Глава 3
00:16:37.040 : Глава 4
00:22:23.880 : Глава 5
00:27:41.400 : Глава 6
00:33:24.000 : Глава 7
00:39:02.920 : Глава 8
00:45:11.680 : Глава 9
00:50:17.640 : Глава 10
00:56:14.800 : Глава 11
01:02:13.560 : Глава 12
01:07:39.600 : Глава 13
01:13:21.240 : Глава 14
01:18:55.680 : Глава 15
01:23:58.560 : Глава 16
Bit rate mode : VBR
Скриншоты:




Релиз подготовлен для просмотра на Apple TV, iPad, iPhone, iPod Touch.
Для просмотра данного релиза на компьютере с ОС Windows рекомендуется использовать VLC media player

Смотреть Online

http://moonwalk.cc/video/a87e5d65c5390037/iframe
Детали торрента:
Название:Голограмма для короля / A Hologram for the King (2016) WEB-DL [1080p] ATV
Дата добавления:22 Июн 2016 14:21:30
Размер:3,29 GB
Раздают:3
Качают:0
Форум:Зарубежное видео HD для устройств Apple

All rights reserved © 2015-2018