TORRENTS43.COM

Скачать Ян Гуй Фэй / Wang chao de nv ren: Yang Gui Fei (2015) HDRip [H.264]


Ян Гуй Фэй / Wang chao de nv ren: Yang Gui Fei (2015) HDRip [H.264]
Производство: Китай
Жанр: Исторический, Военный

Режиссер: Ши Цин
Актеры: Фань БинБин, Ву Чун, Леон Лай

Описание: Фильм расскажет историю знаменитой танской наложницы Ян Гуй Фэй. Юная красавица покорила сердце немолодого императора Сюань-цзуна, и их любовь привела целую династию к гибели.



Релиз от: BttTeam
Продолжительность: 02:01:29
Качество видео: HDRip
Перевод: Двухголосый закадровый, любительский (Ворон и Wenlana)
Автор перевода: Nora Histon, Ri
Язык субтитров: Русский
Вид субтитров: Вшитые, отключаемые

Видео: AVC/H.264, 720x304 (2.35:1), 24,000 fps, ~1668 kbps, 0.318 bit/pixel
Аудио 01: AC3, 6 ch, 48 kHz, ~448 kbps | Русский (DVO)
Аудио 02: AC3, 6 ch, 48 kHz, ~448 kbps | Китайский (оригинал)

Mediainfo:

Код: выделить все

Общее
Уникальный идентификатор: 186981646195867842799736973018042042377 (0x8CAB5AEAD8377588BA0F8BD04BCD8809)
Полное имя: D:\Video\Yang Gui Fei.mkv
Формат: Matroska
Версия формата: Version 4 / Version 2
Размер файла: 2,18 Гбайт
Продолжительность: 2 ч. 1 м.
Общий поток: 2568 Кбит/сек
Дата кодирования: UTC 2016-03-04 23:31:01
Программа кодирования: mkvmerge v8.2.0 ('World of Adventure') 32bit
Библиотека кодирования: libebml v1.3.1 + libmatroska v1.4.2
Attachments: AA-Duke-Regular.otf / ARIALNB.TTF / batmfa.ttf / calibrib.ttf / FRADMIT.TTF / framd.ttf

Видео
Идентификатор: 1
Формат: AVC
Формат/Информация: Advanced Video Codec
Профиль формата: High@L4.1
Параметр CABAC формата: Да
Параметр ReFrames формата: 10 кадров
Идентификатор кодека: V_MPEG4/ISO/AVC
Продолжительность: 2 ч. 1 м.
Битрейт: 1668 Кбит/сек
Ширина: 720 пикселей
Высота: 304 пикселя
Соотношение сторон: 2,35:1
Режим частоты кадров: Постоянный
Частота кадров: 24,000 кадра/сек
Цветовое пространство: YUV
Субдискретизация насыщенности: 4:2:0
Битовая глубина: 8 бит
Тип развёртки: Прогрессивная
Бит/(Пиксели*Кадры): 0.318
Размер потока: 1,42 Гбайт (65%)
Библиотека кодирования: x264 core 148 r2638 7599210
Настройки программы: cabac=1 / ref=10 / deblock=1:-2:-1 / analyse=0x3:0x133 / me=umh / subme=10 / psy=1 / psy_rd=1.00:0.00 / mixed_ref=1 / me_range=24 / chroma_me=1 / trellis=2 / 8x8dct=1 / cqm=0 / deadzone=21,11 / fast_pskip=0 / chroma_qp_offset=-2 / threads=6 / lookahead_threads=1 / sliced_threads=0 / nr=0 / decimate=0 / interlaced=0 / bluray_compat=0 / constrained_intra=0 / bframes=10 / b_pyramid=2 / b_adapt=2 / b_bias=0 / direct=3 / weightb=1 / open_gop=1 / weightp=2 / keyint=240 / keyint_min=24 / scenecut=40 / intra_refresh=0 / rc_lookahead=60 / rc=2pass / mbtree=0 / bitrate=1668 / ratetol=1.0 / qcomp=0.70 / qpmin=10 / qpmax=51 / qpstep=4 / cplxblur=20.0 / qblur=0.5 / vbv_maxrate=62500 / vbv_bufsize=78125 / nal_hrd=none / filler=0 / ip_ratio=1.40 / pb_ratio=1.30 / aq=1:1.00
Язык: English
Default: Да
Forced: Нет
Цветовой диапазон: Limited
Коэффициенты матрицы: BT.709

Аудио #1
Идентификатор: 2
Формат: AC-3
Формат/Информация: Audio Coding 3
Расширение режима : CM (complete main)
Параметр Endianness формата: Big
Идентификатор кодека: A_AC3
Продолжительность: 2 ч. 1 м.
Вид битрейта: Постоянный
Битрейт: 448 Кбит/сек
Каналы : 6 каналов
Расположение каналов: Front: L C R, Side: L R, LFE
Частота: 48,0 КГц
Частота кадров: 31,250 кадров/сек (1536 spf)
Метод сжатия: С потерями
Размер потока: 389 Мбайт (17%)
Заголовок: Ворон и Wenlana
Язык: Russian
Default: Да
Forced: Нет

Аудио #2
Идентификатор: 3
Формат: AC-3
Формат/Информация: Audio Coding 3
Расширение режима: CM (complete main)
Параметр Endianness формата: Big
Идентификатор кодека: A_AC3
Продолжительность: 2 ч. 1 м.
Вид битрейта: Постоянный
Битрейт: 448 Кбит/сек
Каналы: 6 каналов
Расположение каналов: Front: L C R, Side: L R, LFE
Частота: 48,0 КГц
Частота кадров: 31,250 кадров/сек (1536 spf)
Метод сжатия: С потерями
Размер потока: 389 Мбайт (17%)
Заголовок: Original
Язык: Chinese
Default: Нет
Forced: Нет

Текст
Идентификатор: 4
Формат: ASS
Идентификатор кодека: S_TEXT/ASS
Идентификатор кодека/Информация: Advanced Sub Station Alpha
Продолжительность: 1 ч. 55 м.
Битрейт: 117 бит/сек
Count of elements: 1145
Метод сжатия: Без потерь
Размер потока: 99,2 Кбайт (0%)
Заголовок: Перевод - [Фансаб-группа Zipper]
Язык: Russian
Default: Нет
Forced: Нет
Скриншоты:


Все одноименные релизы в клубе

Смотреть Online

http://moonwalk.cc/video/7f61e63d35ef54cf/iframe
Детали торрента:
Название:Ян Гуй Фэй / Wang chao de nv ren: Yang Gui Fei (2015) HDRip [H.264]
Дата добавления:22 Июн 2016 15:55:43
Размер:2,18 GB
Раздают:
Качают:0
Форум:Азиатское кино (HD*Rip/LQ, DVDRip, SATRip, VHSRip)

All rights reserved © 2015-2018