TORRENTS43.COM

Скачать Каждому своё / Everybody Wants Some!! (2016) WEB-DL [H.264/1080p-LQ]


Каждому своё / Everybody Wants Some!! (2016) WEB-DL [H.264/1080p-LQ]
Производство: США, Paramount Pictures, Detour Filmproduction, Annapurna Pictures
Жанр: Комедия

Режиссер: Ричард Линклейтер
Актеры: Блейк Дженнер, Джастон Стрит, Райан Гузман, Тайлер Хэклин, Уайатт Расселл, Глен Пауэлл, Темпл Бэйкер, Дж. Куинтон Джонсон, Уилл Бриттейн, Кортни Тейлор

Описание:
Сексуальная революция и любовь, пьяные тусовки и травка, брендовые шмотки и топовая музыка… Первокурсник Джейк получает комнату в общежитии колледжа и погружается в порочный водоворот беззаботной жизни Америки 80-х. Он впервые познает вкус свободы и взрослой жизни, даже не задумываясь о последствиях...


Возраст: 18+ (зрителям, достигшим 18 лет. запрещено для детей)
Рейтинг MPAA: R (лицам до 17 лет обязательно присутствие взрослого)
Дата мировой премьеры: 11 марта 2016
Дата российской премьеры: 7 апреля 2016, «Парадиз»
Дата выхода DVD/Blu-ray релиза: 18 июля 2016, «Парадиз Медиа»

Продолжительность: 01:57:19
Качество видео: WEB-DL
Перевод: Дублированный (iTunes)
Вид субтитров: Отсутствуют

Видео: AVC, 1916x1076 (16:9), 23.976 fps, 4 997 Kbps (0.101 bit/pixel)
Аудио: AC-3, 48.0 KHz, 6 ch, 384 Kbps, CBR (Russian)
Аудио: AC-3, 48.0 KHz, 6 ch, 384 Kbps, CBR (English)

Mediainfo:

Код: выделить все

Формат                                   : Matroska
Версия формата                           : Version 4 / Version 2
Размер файла                             : 4,82 Гбайт
Продолжительность                        : 1 ч. 57 м.
Общий поток                              : 5883 Кбит/сек
Название фильма                          : Everybody.Wants.Some.2016.WEB-DL.1080p.ExKinoRay
Дата кодирования                         : UTC 2016-06-22 14:13:58
Программа кодирования                    : mkvmerge v8.3.0 ('Over the Horizon') 64bit
Библиотека кодирования                   : libebml v1.3.1 + libmatroska v1.4.2
DURATION                                 : 01:56:37.376000000
NUMBER_OF_FRAMES                         : 218668
NUMBER_OF_BYTES                          : 335874048
_STATISTICS_WRITING_APP                  : mkvmerge v8.3.0 ('Over the Horizon') 64bit
_STATISTICS_WRITING_DATE_UTC             : 2016-06-22 14:13:58
_STATISTICS_TAGS                         : BPS DURATION NUMBER_OF_FRAMES NUMBER_OF_BYTES

Видео
Идентификатор                            : 1
Формат                                   : AVC
Формат/Информация                        : Advanced Video Codec
Профиль формата                          : High@L4
Параметр CABAC формата                   : Да
Параметр ReFrames формата                : 4 кадра
Идентификатор кодека                     : V_MPEG4/ISO/AVC
Продолжительность                        : 1 ч. 57 м.
Битрейт                                  : 4997 Кбит/сек
Ширина                                   : 1916 пикселей
Высота                                   : 1076 пикселей
Соотношение сторон                       : 16:9
Режим частоты кадров                     : Постоянный
Частота кадров                           : 23,976 кадра/сек
Цветовое пространство                    : YUV
Субдискретизация насыщенности            : 4:2:0
Битовая глубина                          : 8 бит
Тип развёртки                            : Прогрессивная
Бит/(Пиксели*Кадры)                      : 0.101
Размер потока                            : 4,10 Гбайт (85%)
Язык                                     : English
Default                                  : Да
Forced                                   : Нет
Цветовой диапазон                        : Limited
Основные цвета                           : BT.709
Характеристики трансфера                 : BT.709
Коэффициенты матрицы                     : BT.709

Аудио #1
Идентификатор                            : 2
Формат                                   : AC-3
Формат/Информация                        : Audio Coding 3
Расширение режима                        : CM (complete main)
Параметр Endianness формата              : Big
Идентификатор кодека                     : A_AC3
Продолжительность                        : 1 ч. 57 м.
Вид битрейта                             : Постоянный
Битрейт                                  : 384 Кбит/сек
Каналы                                   : 6 каналов
Расположение каналов                     : Front: L C R, Side: L R, LFE
Частота                                  : 48,0 КГц
Битовая глубина                          : 16 бит
Метод сжатия                             : С потерями
Задержка видео                           : 24 с.
Размер потока                            : 322 Мбайт (7%)
Заголовок                                : DUB [iTunes]
Язык                                     : Russian
Default                                  : Да
Forced                                   : Нет

Аудио #2
Идентификатор                            : 3
Формат                                   : AC-3
Формат/Информация                        : Audio Coding 3
Расширение режима                        : CM (complete main)
Параметр Endianness формата              : Big
Идентификатор кодека                     : A_AC3
Продолжительность                        : 1 ч. 57 м.
Вид битрейта                             : Постоянный
Битрейт                                  : 384 Кбит/сек
Каналы                                   : 6 каналов
Расположение каналов                     : Front: L C R, Side: L R, LFE
Частота                                  : 48,0 КГц
Битовая глубина                          : 16 бит
Метод сжатия                             : С потерями
Размер потока                            : 322 Мбайт (7%)
Язык                                     : English
Default                                  : Нет
Forced                                   : Нет
 
Скриншоты:




Все одноименные релизы в Клубе
Детали торрента:
Название:Каждому своё / Everybody Wants Some!! (2016) WEB-DL [H.264/1080p-LQ]
Дата добавления:22 Июн 2016 20:14:21
Размер:4,82 GB
Раздают:2
Качают:0
Форум:Зарубежные Фильмы (HD*Rip/LQ, DVDRip, SATRip, VHSRip)

All rights reserved © 2015-2018