TORRENTS43.COM

Скачать Письмо из юности (1973) WEBRip


Письмо из юности (1973) WEBRip
Производство: СССР, Киностудия им. М.Горького
Жанр: Драма, Военный

Режиссер: Юрий Григорьев
Актеры: Леонид Неведомский, Евгений Карельских, Евгений Кондратьев, Вячеслав Расцветаев, Лариса Леонова, Елена Борзова, Наталья Дмитриева, Светлана Харитонова, Клавдия Козлёнкова, Сергей Овчаров, Ирина Муравьёва

Описание:
В истории человечества нет времени, страшнее Второй мировой войны. Но именно в тот тяжелый период стало возможным узнать настоящую сущность человека.Эта история рассказывает о периоде, когда началась Вторая мировая война. Тогда тысячи неопытных подростков готовы были ценой своей жизни защищать родные земли и, подделав документы, шли воевать на фронт. Именно тогда юный Василий решил, что он так же не может себе позволить оставаться в стороне. Он поступает в водолазную школу в надежде, что по её окончании сможет поступить в Морфлот и уже в море бороться с оккупантами. Однако, не всё в этой жизни получается, как мы задумали, и, когда парень заканчивает школу водолазов, вместо элитного фронта его отправляют работать в далекие районы, где он с другими молодыми людьми должен будет очищать озера от топляка. Бедный подросток и вовсе отчаялся, однако вскоре в его голове созреет план, как помочь своей родине и всё-таки стать героем.



Продолжительность: 01:07:10
Качество видео: WEBRip

Видео: Xvid, 720x352, ~2203 kbps
Аудио: MP3, 2 ch, 192.00 kbps, CBR

Mediainfo:

Код: выделить все

Общее
Полное имя                               : E:\Письмо из юности (1973) WebRip.avi
Формат                                   : AVI
Формат/Информация                        : Audio Video Interleave
Размер файла                             : 1,13 Гбайт
Продолжительность                        : 1 ч. 7 м.
Общий поток                              : 2404 Кбит/сек
Программа кодирования                    : VirtualDubMod 1.5.10.2 (build 2542/release)
Библиотека кодирования                   : VirtualDubMod build 2542/release

Видео
Идентификатор                            : 0
Формат                                   : MPEG-4 Visual
Профиль формата                          : Advanced Simple@L5
Параметр BVOP формата                    : 2
Параметр QPel формата                    : Нет
Параметр GMC формата                     : Без точки перехода
Параметр матрицы формата                 : Default (H.263)
Режим смешивания                         : Сжатый битовый поток
Идентификатор кодека                     : XVID
Идентификатор кодека/Подсказка           : XviD
Продолжительность                        : 1 ч. 7 м.
Битрейт                                  : 2203 Кбит/сек
Ширина                                   : 720 пикселей
Высота                                   : 352 пикселя
Соотношение сторон                       : 2,045
Частота кадров                           : 25,000 кадров/сек
Цветовое пространство                    : YUV
Субдискретизация насыщенности            : 4:2:0
Битовая глубина                          : 8 бит
Тип развёртки                            : Прогрессивная
Метод сжатия                             : С потерями
Бит/(Пиксели*Кадры)                      : 0.348
Размер потока                            : 1,03 Гбайт (92%)
Библиотека кодирования                   : XviD 65

Аудио
Идентификатор                            : 1
Формат                                   : MPEG Audio
Версия формата                           : Version 1
Профиль формата                          : Layer 3
Режим                                    : Joint stereo
Расширение режима                        : MS Stereo
Идентификатор кодека                     : 55
Идентификатор кодека/Подсказка           : MP3
Продолжительность                        : 1 ч. 7 м.
Вид битрейта                             : Постоянный
Битрейт                                  : 192 Кбит/сек
Каналы                                   : 2 канала
Частота                                  : 48,0 КГц
Метод сжатия                             : С потерями
Размер потока                            : 92,3 Мбайт (8%)
Выравнивание                             : Соединение по промежуткам
Продолжительность промежутка             : 40  мс. (1,00 видеокадр)
Время предзагрузки промежутка            : 504  мс.
Библиотека кодирования                   : LAME3.98r
Настройки программы                      : -m j -V 4 -q 3 -lowpass 18.6 -b 192
Скриншоты:

Дополнительные скриншоты:



Все одноименные релизы в Клубе
Детали торрента:
Название:Письмо из юности (1973) WEBRip
Дата добавления:22 Июн 2016 22:07:28
Размер:1,13 GB
Раздают:
Качают:0
Форум:Старые Отечественные Фильмы (HD*Rip/LQ, DVDRip, SATRip, VHSRip)

All rights reserved © 2015-2018