TORRENTS43.COM

Скачать Море зовет (1956) SATRip


Море зовет (1956) SATRip
Производство: СССР, Киевская киностудия художественных фильмов
Жанр: Драма

Режиссер: Владимир Браун
Актеры: Людмила Скопина, Алексей Ивашов, Юрий Пузырёв, Александр Суснин, Надежда Семенцова, Надежда Румянцева, Григорий Козаченко, Петр Савин, Андрей Сова, Владимир Емельянов, Софья Карамаш, Фёдор Вархолов, Борис Кудряшов

Описание:
Екатерина Чумак, вдова черноморского моряка, растит четверых сыновей. Дети погибшего моряка решают посвятить свои жизни морю. Двое плавают на одном сейнере. Один из них - капитан, второй мечтает о дальних берегах и пытается игнорировать приказы капитана, но вскоре поняв, что так он ничего не добьётся, берёт уроки мужества и порядка у старшего брата. Младший братишка - шкодливый пятиклассник Тимка - тоже когда-нибудь станет капитаном, а пока решает оставить мать в покое и устроиться юнгой на корабль.


Возраст: 6+ (зрителям, достигшим 6 лет)

Продолжительность: 01:34:43
Качество видео: SATRip

Видео: Xvid, 720x544, ~1853 Kbps
Аудио: MP3, 2 ch, 192 Kbps

Mediainfo:

Код: выделить все

Общее
Полное имя                               : E:\Море зовёт (1956) SATRip.avi
Формат                                   : AVI
Формат/Информация                        : Audio Video Interleave
Размер файла                             : 1,36 Гбайт
Продолжительность                        : 1 ч. 34 м.
Общий поток                              : 2055 Кбит/сек
Программа кодирования                    : VirtualDubMod 1.5.10.2 (build 2542/release)
Библиотека кодирования                   : VirtualDubMod build 2542/release

Видео
Идентификатор                            : 0
Формат                                   : MPEG-4 Visual
Профиль формата                          : Advanced Simple@L5
Параметр BVOP формата                    : 2
Параметр QPel формата                    : Нет
Параметр GMC формата                     : Без точки перехода
Параметр матрицы формата                 : Default (H.263)
Режим смешивания                         : Сжатый битовый поток
Идентификатор кодека                     : XVID
Идентификатор кодека/Подсказка           : XviD
Продолжительность                        : 1 ч. 34 м.
Битрейт                                  : 1853 Кбит/сек
Ширина                                   : 720 пикселей
Высота                                   : 544 пикселя
Соотношение сторон                       : 4:3
Частота кадров                           : 25,000 кадров/сек
Цветовое пространство                    : YUV
Субдискретизация насыщенности            : 4:2:0
Битовая глубина                          : 8 бит
Тип развёртки                            : Прогрессивная
Метод сжатия                             : С потерями
Бит/(Пиксели*Кадры)                      : 0.189
Размер потока                            : 1,23 Гбайт (90%)
Библиотека кодирования                   : XviD 65

Аудио
Идентификатор                            : 1
Формат                                   : MPEG Audio
Версия формата                           : Version 1
Профиль формата                          : Layer 3
Режим                                    : Joint stereo
Расширение режима                        : MS Stereo
Идентификатор кодека                     : 55
Идентификатор кодека/Подсказка           : MP3
Продолжительность                        : 1 ч. 34 м.
Вид битрейта                             : Постоянный
Битрейт                                  : 192 Кбит/сек
Каналы                                   : 2 канала
Частота                                  : 48,0 КГц
Метод сжатия                             : С потерями
Размер потока                            : 130 Мбайт (9%)
Выравнивание                             : Соединение по промежуткам
Продолжительность промежутка             : 40  мс. (1,00 видеокадр)
Время предзагрузки промежутка            : 504  мс.
Библиотека кодирования                   : LAME3.98r
Настройки программы                      : -m j -V 4 -q 3 -lowpass 18.6 -b 192
Скриншоты:

Дополнительные скриншоты:





Все одноименные релизы в Клубе
Детали торрента:
Название:Море зовет (1956) SATRip
Дата добавления:22 Июн 2016 22:38:20
Размер:1,36 GB
Раздают:
Качают:0
Форум:Старые Отечественные Фильмы (HD*Rip/LQ, DVDRip, SATRip, VHSRip)

All rights reserved © 2015-2018