TORRENTS43.COM

Скачать Топ Гир / Top Gear (2016) HDTVRip [H.264/720p-LQ] (сезон 23, серия 3) [Jetvis Studio & RG.paravozik]


Топ Гир / Top Gear (2016) HDTVRip [H.264/720p-LQ] (сезон 23, серия 3) [Jetvis Studio & RG.paravozik]
Телекомпания: BBC
Жанр: Телепередача

Ведущие: Крис Эванс, Мэтт ЛеБлан.

Описание:
Новый сезон с новыми ведущими после ухода знаменитой троицы. Top Gear (англ. Top Gear) — популярная английская телепередача, посвящённая автомобилям. Первые выпуски передачи появились в 1977 году. Эта передача была просто пересказ журнала, в течение долгого времени формат передачи не менялся. Но в 2002 году, произошел перезапуск цикла, и вместо сухого пересказа, появился современный «Top Gear», с юмором, приколами, и фирменными тестами. Аудитория программ в странах официальной трансляции составляет около 350 миллионов человек.


Возраст: 12+ (зрителям, достигшим 12 лет)

Продолжительность: ~ 00:58:10
Качество видео: HDTVRip
Перевод: Профессиональный (многоголосый закадровый) - Jetvis Studio & RG.paravozik
Роли озвучивали: Иван Назаров, Сергей Битюцкий, Михаил Вельмискин и Анастасия Домнина
Субтитры: Отсутствуют
Реклама: Присутствуют вставки голосовой и текстовой рекламы.

Видео: AVC, 1280x720 (16:9), 25.000 fps, 3 200 Kbps (0.139 bit/pixel)
Аудио: AC-3, 48.0 KHz, 2 ch, 192 Kbps, CBR - русский
Аудио: AC-3, 48.0 KHz, 2 ch, 192 Kbps, CBR - английский

Mediainfo:

Код:

Формат                                   : Matroska
Версия формата                           : Version 4 / Version 2
Размер файла                             : 1,46 Гбайт
Продолжительность                        : 58 м.
Общий поток                              : 3586 Кбит/сек
Дата кодирования                         : UTC 2016-06-15 21:16:28
Программа кодирования                    : mkvmerge v8.1.0 ('Psychedelic Postcard') 64bit
Библиотека кодирования                   : libebml v1.3.1 + libmatroska v1.4.2
DURATION                                 : 00:58:31.808000000
NUMBER_OF_FRAMES                         : 109744
NUMBER_OF_BYTES                          : 84283392
_STATISTICS_WRITING_APP                  : mkvmerge v8.1.0 ('Psychedelic Postcard') 64bit
_STATISTICS_WRITING_DATE_UTC             : 2016-06-15 21:16:28
_STATISTICS_TAGS                         : BPS DURATION NUMBER_OF_FRAMES NUMBER_OF_BYTES

Видео
Идентификатор                            : 1
Формат                                   : AVC
Формат/Информация                        : Advanced Video Codec
Профиль формата                          : High@L3.1
Параметр CABAC формата                   : Да
Параметр ReFrames формата                : 4 кадра
Идентификатор кодека                     : V_MPEG4/ISO/AVC
Продолжительность                        : 58 м.
Битрейт                                  : 3200 Кбит/сек
Ширина                                   : 1280 пикселей
Высота                                   : 720 пикселей
Соотношение сторон                       : 16:9
Режим частоты кадров                     : Постоянный
Частота кадров                           : 25,000 кадров/сек
Цветовое пространство                    : YUV
Субдискретизация насыщенности            : 4:2:0
Битовая глубина                          : 8 бит
Тип развёртки                            : Прогрессивная
Бит/(Пиксели*Кадры)                      : 0.139
Размер потока                            : 1,28 Гбайт (87%)
Библиотека кодирования                   : x264 core 146 r2538 121396c
Настройки программы                      : cabac=1 / ref=1 / deblock=1:0:0 / analyse=0x3:0x113 / me=hex / subme=2 / psy=1 / psy_rd=1.00:0.00 / mixed_ref=0 / me_range=16 / chroma_me=1 / trellis=0 / 8x8dct=1 / cqm=0 / deadzone=21,11 / fast_pskip=1 / chroma_qp_offset=0 / threads=12 / lookahead_threads=4 / sliced_threads=0 / nr=0 / decimate=1 / interlaced=0 / bluray_compat=0 / constrained_intra=0 / bframes=3 / b_pyramid=2 / b_adapt=1 / b_bias=0 / direct=1 / weightb=1 / open_gop=0 / weightp=1 / keyint=250 / keyint_min=25 / scenecut=40 / intra_refresh=0 / rc_lookahead=10 / rc=2pass / mbtree=1 / bitrate=3200 / ratetol=1.0 / qcomp=0.60 / qpmin=0 / qpmax=69 / qpstep=4 / cplxblur=20.0 / qblur=0.5 / ip_ratio=1.40 / aq=1:1.00
Default                                  : Да
Forced                                   : Нет

Аудио #1
Идентификатор                            : 2
Формат                                   : AC-3
Формат/Информация                        : Audio Coding 3
Расширение режима                        : CM (complete main)
Параметр Endianness формата              : Big
Идентификатор кодека                     : A_AC3
Продолжительность                        : 58 м.
Вид битрейта                             : Постоянный
Битрейт                                  : 192 Кбит/сек
Каналы                                   : 2 канала
Расположение каналов                     : Front: L R
Частота                                  : 48,0 КГц
Битовая глубина                          : 16 бит
Метод сжатия                             : С потерями
Размер потока                            : 80,4 Мбайт (5%)
Default                                  : Да
Forced                                   : Да

Аудио #2
Идентификатор                            : 3
Формат                                   : AC-3
Формат/Информация                        : Audio Coding 3
Расширение режима                        : CM (complete main)
Параметр Endianness формата              : Big
Идентификатор кодека                     : A_AC3
Продолжительность                        : 58 м.
Вид битрейта                             : Постоянный
Битрейт                                  : 192 Кбит/сек
Каналы                                   : 2 канала
Расположение каналов                     : Front: L R
Частота                                  : 48,0 КГц
Битовая глубина                          : 16 бит
Метод сжатия                             : С потерями
Размер потока                            : 80,4 Мбайт (5%)
Default                                  : Нет
Forced                                   : Нет
 
Скриншоты:



Все одноименные релизы в Клубе

Смотреть Online

http://moonwalk.cc/video/927871a770badb63/iframe
Детали торрента:
Название:Топ Гир / Top Gear (2016) HDTVRip [H.264/720p-LQ] (сезон 23, серия 3) [Jetvis Studio & RG.paravozik]
Дата добавления:22 Июн 2016 22:52:48
Размер:1,46 GB
Раздают:1
Качают:0
Форум:За рулем

All rights reserved © 2015-2018