TORRENTS43.COM

Скачать Алиса в Зазеркалье / Alice Through the Looking Glass (2016) TC [H.264/720p-LQ] [Line]


Алиса в Зазеркалье / Alice Through the Looking Glass (2016) TC [H.264/720p-LQ] [Line]
Производство: США
Жанр: Фэнтези, Приключения, Семейный

Режиссер: Джеймс Бобин
Актеры: Миа Васиковска, Джонни Депп, Хелена Бонем Картер, Энн Хэтэуэй, Саша Барон Коэн, Рис Иванс, Мэтт Лукас, Линдси Дункан

Описание:
Победив огнедышащего дракона Бармаглота и свергнув с трона Красную Королеву, Алиса возвращается в свой родной мир. Три года она плавает по китайским морям в звании капитана корабля "Чудо", перевозя торговые грузы и занимаясь делами компании своего покойного отца, Чарльза Кингсли. Но вскоре ей предстоит вновь с головой окунуться в водоворот захватывающих приключений и ярких красок дневного свечения, опередив само время, чтобы спасти своего лучшего друга, Сумасшедшего Шляпника.


Возраст: 12+ (зрителям, достигшим 12 лет)
Рейтинг MPAA: PG (рекомендуется присутствие родителей)
Дата мировой премьеры: 25 мая 2016
Дата российской премьеры: 26 мая 2016

Продолжительность: 01:52:35
Качество видео: TC
Перевод: Дублированный (Line)
Субтитры: Корейский (вшитые, не отключаемые)
Реклама: Присутствуют вставки голосовой и текстовой рекламы.

Видео: AVC, 1280x702 (16:9), 25.000 fps, 3 670 Kbps (0.163 bit/pixel)
Аудио: AC-3, 48.0 KHz, 2 ch, 192 Kbps, CBR

Mediainfo:

Код:

Формат                                   : Matroska
Версия формата                           : Version 4 / Version 2
Размер файла                             : 3,10 Гбайт
Продолжительность                        : 1 ч. 52 м.
Режим общего битрейта                    : Постоянный
Общий поток                              : 3940 Кбит/сек
Дата кодирования                         : UTC 2016-06-22 20:19:44
Программа кодирования                    : mkvmerge v7.6.0 ('Garden of Dreams') 64bit built on Feb  8 2015 13:04:34
Библиотека кодирования                   : libebml v1.3.1 + libmatroska v1.4.2
_STATISTICS_WRITING_APP                  : mkvmerge v7.6.0 ('Garden of Dreams') 64bit built on Feb  8 2015 13:04:34
_STATISTICS_WRITING_DATE_UTC             : 2016-06-22 20:19:44
_STATISTICS_TAGS                         : BPS DURATION NUMBER_OF_FRAMES NUMBER_OF_BYTES
DURATION                                 : 01:52:35.808000000
NUMBER_OF_FRAMES                         : 211119
NUMBER_OF_BYTES                          : 162139392

Видео
Идентификатор                            : 1
Формат                                   : AVC
Формат/Информация                        : Advanced Video Codec
Профиль формата                          : High@L3.1
Параметр CABAC формата                   : Да
Параметр ReFrames формата                : 5 кадров
Идентификатор кодека                     : V_MPEG4/ISO/AVC
Продолжительность                        : 1 ч. 52 м.
Вид битрейта                             : Постоянный
Битрейт                                  : 3670 Кбит/сек
Номинальный битрейт                      : 4000 Кбит/сек
Ширина                                   : 1280 пикселей
Высота                                   : 702 пикселя
Соотношение сторон                       : 1,85:1
Режим частоты кадров                     : Постоянный
Частота кадров                           : 25,000 кадров/сек
Стандарт вещания                         : Component
Цветовое пространство                    : YUV
Субдискретизация насыщенности            : 4:2:0
Битовая глубина                          : 8 бит
Тип развёртки                            : Прогрессивная
Бит/(Пиксели*Кадры)                      : 0.163
Размер потока                            : 2,89 Гбайт (93%)
Default                                  : Да
Forced                                   : Нет
Цветовой диапазон                        : Limited
Основные цвета                           : BT.709
Характеристики трансфера                 : BT.709
Коэффициенты матрицы                     : BT.709

Аудио
Идентификатор                            : 2
Формат                                   : AC-3
Формат/Информация                        : Audio Coding 3
Расширение режима                        : CM (complete main)
Параметр Endianness формата              : Big
Идентификатор кодека                     : A_AC3
Продолжительность                        : 1 ч. 52 м.
Вид битрейта                             : Постоянный
Битрейт                                  : 192 Кбит/сек
Каналы                                   : 2 канала
Расположение каналов                     : Front: L R
Частота                                  : 48,0 КГц
Битовая глубина                          : 16 бит
Метод сжатия                             : С потерями
Размер потока                            : 155 Мбайт (5%)
Default                                  : Да
Forced                                   : Нет
 
Скриншоты:



Все одноименные релизы в Клубе
Детали торрента:
Название:Алиса в Зазеркалье / Alice Through the Looking Glass (2016) TC [H.264/720p-LQ] [Line]
Дата добавления:22 Июн 2016 23:26:13
Размер:3,1 GB
Раздают:
Качают:0
Форум:Архив неактуальных Экранок и видео с Рекламой

All rights reserved © 2015-2018