TORRENTS43.COM

Скачать Дожди (1958) SATRip


Дожди (1958) SATRip
Производство: СССР, Мосфильм
Жанр: Драма

Режиссер: Сергей Казаков
Актеры: Лидия Сухаревская, Виктор Кольцов, Михаил Кузнецов, Михаил Глузский, Елена Максимова, Ольга Дзисько, Михаил Трояновский, Борис Сазонов, Елена Вольская, Михаил Семенихин, Михаил Семенихин, Елена Вольская

Описание:
На строительстве небольшого моста срывается план работ - вот уже две недели идут проливные дожди, не хватает песка и гравия. Начальник строительства и Валентина Георгиевна, его преданная секретарша, тоскуют по хорошей погоде и ждут перемен. И перемены действительно наступают. Ивана Семёновича снимают с работы и вместо него присылают нового - энергичного, грубоватого начальника со смешной фамилией - Непейвода. Обстановка на строительстве резко меняется: новый начальник сумел расставить людей, заразить всех своей кипучей энергией, и строители живо откликнулись проявлением своей инициативы. Теперь уже дожди не мешают выполнению плана...



Продолжительность: 00:51:11
Качество видео: SATRip

Видео: Xvid, 720x544, ~2202 Kbps
Аудио: MP3, 2 ch, 192 Kbps, CBR

Mediainfo:

Код: выделить все

Общее
Полное имя                               : G:\Дожди (1958) SATRip.avi
Формат                                   : AVI
Формат/Информация                        : Audio Video Interleave
Размер файла                             : 880 Мбайт
Продолжительность                        : 51 м.
Общий поток                              : 2404 Кбит/сек
Программа кодирования                    : VirtualDubMod 1.5.10.2 (build 2540/release)
Библиотека кодирования                   : VirtualDubMod build 2540/release

Видео
Идентификатор                            : 0
Формат                                   : MPEG-4 Visual
Профиль формата                          : Advanced Simple@L5
Параметр BVOP формата                    : 2
Параметр QPel формата                    : Нет
Параметр GMC формата                     : Без точки перехода
Параметр матрицы формата                 : Default (H.263)
Режим смешивания                         : Сжатый битовый поток
Идентификатор кодека                     : XVID
Идентификатор кодека/Подсказка           : XviD
Продолжительность                        : 51 м.
Битрейт                                  : 2202 Кбит/сек
Ширина                                   : 720 пикселей
Высота                                   : 544 пикселя
Соотношение сторон                       : 4:3
Частота кадров                           : 25,000 кадров/сек
Цветовое пространство                    : YUV
Субдискретизация насыщенности            : 4:2:0
Битовая глубина                          : 8 бит
Тип развёртки                            : Прогрессивная
Метод сжатия                             : С потерями
Бит/(Пиксели*Кадры)                      : 0.225
Размер потока                            : 806 Мбайт (92%)
Библиотека кодирования                   : XviD 73

Аудио
Идентификатор                            : 1
Формат                                   : MPEG Audio
Версия формата                           : Version 1
Профиль формата                          : Layer 3
Режим                                    : Joint stereo
Расширение режима                        : MS Stereo
Идентификатор кодека                     : 55
Идентификатор кодека/Подсказка           : MP3
Продолжительность                        : 51 м.
Вид битрейта                             : Постоянный
Битрейт                                  : 192 Кбит/сек
Каналы                                   : 2 канала
Частота                                  : 48,0 КГц
Метод сжатия                             : С потерями
Размер потока                            : 70,3 Мбайт (8%)
Выравнивание                             : Соединение по промежуткам
Продолжительность промежутка             : 40  мс. (1,00 видеокадр)
Время предзагрузки промежутка            : 504  мс.
Библиотека кодирования                   : LAME3.99r
Настройки программы                      : -m j -V 4 -q 3 -lowpass 18.6 -b 192
Скриншоты:

Дополнительные скриншоты:





Все одноименные релизы в Клубе

Смотреть Online

http://37.220.36.15/video/7e030b1b861ec165/iframe
Детали торрента:
Название:Дожди (1958) SATRip
Дата добавления:22 Июн 2016 23:56:00
Размер:880 MB
Раздают:
Качают:0
Форум:Старые Отечественные Фильмы (HD*Rip/LQ, DVDRip, SATRip, VHSRip)

All rights reserved © 2015-2018