TORRENTS43.COM

Скачать Без обмана. Новости рыбного рынка (2016.06.27) SATRip


Без обмана. Новости рыбного рынка (2016.06.27) SATRip
Телекомпания: ТВЦ
Жанр: Документальный, расследование
Производство: Россия
Автор: Илья Рендаков

Описание:
Это масштабное потребительское расследование, задача которого дать зрителям подробные советы, как не попасть в неприятности за собственные деньги. В центре программы оказываются самые разные товары и услуги потребительского рынка, их "судят" авторитетные эксперты и рядовые люди. Корреспонденты программы часто выступают в роли тайных агентов, внедряющихся на производства и в торговые точки, где находят массу увлекательного компромата. И главное – бьются за права пострадавших потребителей, выдвигая их обидчикам обоснованные претензии. Помимо массы интересных экспертиз и экспериментов, которые выявляют худшие и самые опасные товары в России, в программе всегда есть интересный рассказ о похожих проблемах в других странах и эксклюзивный экскурс в "историю вопроса". Кадры уникальной кинохроники и рассказ экспертов о том, как производили те же продукты питания в советскую эпоху, всегда пользуются особым успехом у телезрителей. Селедка, хлеб, вино, оливковое масло, новая иномарка или шкаф… Обычные предметы нашего обихода могут стать героями очень увлекательного расследования с детективным началом и громкими разоблачениями.

Релиз от: -=FOX=-
Продолжительность: ~ 00:41:05
Качество видео: SATRip
Субтитры: Отсутствуют

Видео: MPEG4, XviD, 704x448 (1.571), 25.000 fps, 1 800 Kbps (0.228 bit/pixel)
Аудио: MP3, 48.0 KHz, 2 ch, 128 Kbps, CBR

Mediainfo:

Код:

Формат                                   : AVI
Формат/Информация                        : Audio Video Interleave
Размер файла                             : 569 Мбайт
Продолжительность                        : 41 м.
Общий поток                              : 1938 Кбит/сек
Программа кодирования                    : VirtualDubModRus 1.5.10.2 (build 2542/release)
Библиотека кодирования                   : VirtualDubMod build 2542/release

Видео
Идентификатор                            : 0
Формат                                   : MPEG-4 Visual
Профиль формата                          : Advanced Simple@L5
Параметр BVOP формата                    : 2
Параметр QPel формата                    : Нет
Параметр GMC формата                     : Без точки перехода
Параметр матрицы формата                 : Default (MPEG)
Идентификатор кодека                     : XVID
Идентификатор кодека/Подсказка           : XviD
Продолжительность                        : 41 м.
Битрейт                                  : 1800 Кбит/сек
Ширина                                   : 704 пикселя
Высота                                   : 448 пикселей
Соотношение сторон                       : 16:10
Частота кадров                           : 25,000 кадров/сек
Цветовое пространство                    : YUV
Субдискретизация насыщенности            : 4:2:0
Битовая глубина                          : 8 бит
Тип развёртки                            : Прогрессивная
Метод сжатия                             : С потерями
Бит/(Пиксели*Кадры)                      : 0.228
Размер потока                            : 529 Мбайт (93%)
Библиотека кодирования                   : XviD 73

Аудио
Идентификатор                            : 1
Формат                                   : MPEG Audio
Версия формата                           : Version 1
Профиль формата                          : Layer 3
Идентификатор кодека                     : 55
Идентификатор кодека/Подсказка           : MP3
Продолжительность                        : 41 м.
Вид битрейта                             : Постоянный
Битрейт                                  : 128 Кбит/сек
Каналы                                   : 2 канала
Частота                                  : 48,0 КГц
Метод сжатия                             : С потерями
Размер потока                            : 37,6 Мбайт (7%)
Выравнивание                             : Соединение по промежуткам
Продолжительность промежутка             : 40  мс. (1,00 видеокадр)
Время предзагрузки промежутка            : 504  мс.
Библиотека кодирования                   : LAME3.99r
Настройки программы                      : -m s -V 4 -q 2 -lowpass 17 -b 128
 

В выпуске:

Вместо норвежского на прилавках теперь лежит чилийский лосось. И цены на него шокируют потребителей. За последние два года на рыбном рынке произошло немало лихорадящих его событий. И умные потребители ищут и учатся готовить продукцию, выловленную в России. Что намного вкуснее и полезнее сибаса? Как превратить в деликатес минтай? И как родная нерка в руках мошенников становится сёмгой?
Скриншоты:



Все одноименные релизы в Клубе
Детали торрента:
Название:Без обмана. Новости рыбного рынка (2016.06.27) SATRip
Дата добавления:29 Июн 2016 11:07:21
Размер:569 MB
Раздают:2
Качают:0
Форум:Тележурналистика

All rights reserved © 2015-2018