TORRENTS43.COM

Скачать Формула 1. Гран-При Австрии. 1, 2, 3-ая свободная практика (2016) HDTVRip [H.264/720p] [hand made 50fps]


ГП Австрии. Свободная практика (2016)
Телекомпания: МАТЧ! Арена
Жанр: Чемпионат Мира, АвтоСпорт, "открытые колеса"
Комментаторы: Владимир Башмаков

Описание:
Ред Булл Ринг (нем. Red Bull Ring) - гоночная трасса, расположенная близ деревни Шпильберг (Штирия, Австрия). Владельцем автодрома в настоящее время является компания Red Bull.

В 2014-м после одиннадцатилетнего перерыва в Формуле 1 вновь появился австрийский этап. Гонка на автодроме в Шпильберге, в третий раз за свою историю сменившего название – Остеррайхринг - А1 Ринг - Ред Булл Ринг – вернулась в чемпионат мира, благодаря усилиям совладельца Red Bull Дитриха Матешица.

Владелец двух команд Формулы 1 сначала вложился в реконструкцию автодрома, а через несколько лет лоббировал проведение национального этапа. Организаторы говорили, что средства от продажи билетов покроют лишь операционные расходы, но для Матешица этот проект имеет особый статус – он и оплатил необходимый взнос Берни Экклстоуну.

Первый Гран При 1964
Рекорд круга 1:08.337 (Михаэль Шумахер, 2003)
Ширина трассы 12-13 метров
Число поворотов 9 (2 левых и 7 правых)
Вероятность выезда автомобиля безопасности 71%
Максимальные перегрузки 3.2g (8-й поворот)
Переключений передач на круге 55
Процент дистанции с полным газом 60%
Процент дистанции на торможениях 22%
Максимальная скорость в повороте 190 км/ч (8-й поворот)
Минимальная скорость в повороте 65 км/ч (2-й поворот)
Максимальная скорость 305 км/ч
Максимальная крутизна подъёма 12%
Максимальная крутизна спуска 9.3%

Продолжительность:
1 СП: 01:34:28
2 СП: 01:39:23
3 СП: 01:07:56
Качество видео: HDTVRip

Видео: MPEG-4 AVC/H.264, ~4 Mbps, 1280x720, 50fps
Аудио: Русский, AC3, 2 ch, 192 kbps | Владимир Башмаков

MediaInfo_1СП:

Код:
Общее
Уникальный идентификатор                 : 251735117699511166535169439276916997806 (0xBD626B8D308E2A68B591BEF82C5EFEAE)
Полное имя                               : Formula 1.Austria.Practice.2016\Formula1.Austria.1Practice.2016.HDTVRip.720p.mkv
Формат                                   : Matroska
Версия формата                           : Version 4 / Version 2
Размер файла                             : 2,87 Гбайт
Продолжительность                        : 1 ч. 34 м.
Общий поток                              : 4352 Кбит/сек
Название фильма                          : Формула 1 Австрия
Дата кодирования                         : UTC 2016-07-02 13:24:52
Программа кодирования                    : mkvmerge v8.3.0 ('Over the Horizon') 64bit
Библиотека кодирования                   : libebml v1.3.1 + libmatroska v1.4.2

Видео
Идентификатор                            : 1
Формат                                   : AVC
Формат/Информация                        : Advanced Video Codec
Профиль формата                          : Baseline@L1.3
Параметр CABAC формата                   : Нет
Параметр ReFrames формата                : 1 кадр
Параметр GOP формата                     : M=1, N=12
Идентификатор кодека                     : V_MPEG4/ISO/AVC
Продолжительность                        : 1 ч. 34 м.
Битрейт                                  : 4156 Кбит/сек
Ширина                                   : 1280 пикселей
Высота                                   : 720 пикселей
Соотношение сторон                       : 16:9
Режим частоты кадров                     : Постоянный
Частота кадров                           : 50,000 кадров/сек
Цветовое пространство                    : YUV
Субдискретизация насыщенности            : 4:2:0
Битовая глубина                          : 8 бит
Тип развёртки                            : Прогрессивная
Бит/(Пиксели*Кадры)                      : 0.090
Размер потока                            : 2,74 Гбайт (95%)
Заголовок                                : Формула 1
Язык                                     : Russian
Default                                  : Да
Forced                                   : Нет

Аудио
Идентификатор                            : 2
Формат                                   : AC-3
Формат/Информация                        : Audio Coding 3
Расширение режима                        : CM (complete main)
Параметр Endianness формата              : Big
Идентификатор кодека                     : A_AC3
Продолжительность                        : 1 ч. 34 м.
Вид битрейта                             : Постоянный
Битрейт                                  : 192 Кбит/сек
Каналы                                   : 2 канала
Расположение каналов                     : Front: L R
Частота                                  : 44,1 КГц
Частота кадров                           : 28,711 кадров/сек (1536 spf)
Метод сжатия                             : С потерями
Размер потока                            : 130 Мбайт (4%)
Заголовок                                : Башмаков
Язык                                     : Russian
Default                                  : Да
Forced                                   : Нет

MediaInfo_2СП:

Код:
Общее
Уникальный идентификатор                 : 206047436768518636526645170953531248533 (0x9B034AF7CD8C7BA39529807E2B994F95)
Полное имя                               : Formula 1.Austria.Practice.2016\Formula1.Austria.2Practice.2016.HDTVRip.720p.mkv
Формат                                   : Matroska
Версия формата                           : Version 4 / Version 2
Размер файла                             : 2,97 Гбайт
Продолжительность                        : 1 ч. 39 м.
Общий поток                              : 4282 Кбит/сек
Название фильма                          : Формула 1 Австрия
Дата кодирования                         : UTC 2016-07-02 12:12:52
Программа кодирования                    : mkvmerge v8.3.0 ('Over the Horizon') 64bit
Библиотека кодирования                   : libebml v1.3.1 + libmatroska v1.4.2

Видео
Идентификатор                            : 1
Формат                                   : AVC
Формат/Информация                        : Advanced Video Codec
Профиль формата                          : Baseline@L1.3
Параметр CABAC формата                   : Нет
Параметр ReFrames формата                : 1 кадр
Параметр GOP формата                     : M=1, N=12
Идентификатор кодека                     : V_MPEG4/ISO/AVC
Продолжительность                        : 1 ч. 39 м.
Битрейт                                  : 4086 Кбит/сек
Ширина                                   : 1280 пикселей
Высота                                   : 720 пикселей
Соотношение сторон                       : 16:9
Режим частоты кадров                     : Постоянный
Частота кадров                           : 50,000 кадров/сек
Цветовое пространство                    : YUV
Субдискретизация насыщенности            : 4:2:0
Битовая глубина                          : 8 бит
Тип развёртки                            : Прогрессивная
Бит/(Пиксели*Кадры)                      : 0.089
Размер потока                            : 2,84 Гбайт (95%)
Заголовок                                : Формула 1
Язык                                     : Russian
Default                                  : Да
Forced                                   : Нет

Аудио
Идентификатор                            : 2
Формат                                   : AC-3
Формат/Информация                        : Audio Coding 3
Расширение режима                        : CM (complete main)
Параметр Endianness формата              : Big
Идентификатор кодека                     : A_AC3
Продолжительность                        : 1 ч. 39 м.
Вид битрейта                             : Постоянный
Битрейт                                  : 192 Кбит/сек
Каналы                                   : 2 канала
Расположение каналов                     : Front: L R
Частота                                  : 44,1 КГц
Частота кадров                           : 28,711 кадров/сек (1536 spf)
Метод сжатия                             : С потерями
Размер потока                            : 136 Мбайт (4%)
Заголовок                                : Башмаков
Язык                                     : Russian
Default                                  : Да
Forced                                   : Нет

MediaInfo_3СП:

Код:
Общее
Уникальный идентификатор                 : 215857387855418230757789033616943909567 (0xA2649EE61DC55435A738825D5E3C8ABF)
Полное имя                               : Formula 1.Austria.Practice.2016\Formula1.Austria.3Practice.2016.HDTVRip.720p.mkv
Формат                                   : Matroska
Версия формата                           : Version 4 / Version 2
Размер файла                             : 1,98 Гбайт
Продолжительность                        : 1 ч. 7 м.
Общий поток                              : 4177 Кбит/сек
Название фильма                          : Формула 1 Австрия
Дата кодирования                         : UTC 2016-07-02 12:11:35
Программа кодирования                    : mkvmerge v8.3.0 ('Over the Horizon') 64bit
Библиотека кодирования                   : libebml v1.3.1 + libmatroska v1.4.2

Видео
Идентификатор                            : 1
Формат                                   : AVC
Формат/Информация                        : Advanced Video Codec
Профиль формата                          : High@L4.1
Параметр CABAC формата                   : Да
Параметр ReFrames формата                : 4 кадра
Идентификатор кодека                     : V_MPEG4/ISO/AVC
Продолжительность                        : 1 ч. 7 м.
Битрейт                                  : 4000 Кбит/сек
Ширина                                   : 1280 пикселей
Высота                                   : 720 пикселей
Соотношение сторон                       : 16:9
Режим частоты кадров                     : Постоянный
Частота кадров                           : 50,000 кадров/сек
Цветовое пространство                    : YUV
Субдискретизация насыщенности            : 4:2:0
Битовая глубина                          : 8 бит
Тип развёртки                            : Прогрессивная
Бит/(Пиксели*Кадры)                      : 0.087
Размер потока                            : 1,89 Гбайт (95%)
Заголовок                                : Формула 1
Библиотека кодирования                   : x264 core 130 r2273 b3065e6
Настройки программы                      : cabac=1 / ref=2 / deblock=1:0:0 / analyse=0x3:0x113 / me=hex / subme=6 / psy=1 / psy_rd=1.00:0.00 / mixed_ref=1 / me_range=16 / chroma_me=1 / trellis=1 / 8x8dct=1 / cqm=0 / deadzone=21,11 / fast_pskip=1 / chroma_qp_offset=-2 / threads=12 / lookahead_threads=2 / sliced_threads=0 / nr=0 / decimate=1 / interlaced=0 / bluray_compat=0 / constrained_intra=0 / bframes=3 / b_pyramid=2 / b_adapt=1 / b_bias=0 / direct=1 / weightb=1 / open_gop=0 / weightp=1 / keyint=500 / keyint_min=50 / scenecut=40 / intra_refresh=0 / rc_lookahead=30 / rc=abr / mbtree=1 / bitrate=4000 / ratetol=1.0 / qcomp=0.60 / qpmin=0 / qpmax=69 / qpstep=4 / vbv_maxrate=62500 / vbv_bufsize=78125 / nal_hrd=none / ip_ratio=1.40 / aq=1:1.00
Язык                                     : Russian
Default                                  : Да
Forced                                   : Нет
Цветовой диапазон                        : Limited
Основные цвета                           : BT.709
Характеристики трансфера                 : BT.709
Коэффициенты матрицы                     : BT.709

Аудио
Идентификатор                            : 2
Формат                                   : AC-3
Формат/Информация                        : Audio Coding 3
Расширение режима                        : CM (complete main)
Параметр Endianness формата              : Big
Идентификатор кодека                     : A_AC3
Продолжительность                        : 1 ч. 7 м.
Вид битрейта                             : Постоянный
Битрейт                                  : 192 Кбит/сек
Каналы                                   : 2 канала
Расположение каналов                     : Front: L R
Частота                                  : 48,0 КГц
Частота кадров                           : 31,250 кадров/сек (1536 spf)
Метод сжатия                             : С потерями
Размер потока                            : 93,3 Мбайт (5%)
Заголовок                                : Башмаков
Язык                                     : Russian
Default                                  : Да
Forced                                   : Нет

Схема автодрома (подробная):


Автодром был построен в 1969 году и изначально был назван Остеррайхринг (нем. Osterreichring). Трек был скоростной и в период с 1970 по 1987 принимал Гран При Формулы-1. В 1987 году FIA признала автодром несоответствующей требованиям безопасности, в результате чего проведение этапов было прекращено.

Схема трасс Остеррайхринг (серые линии) и А1-Ринг (черные линии) В 1996 Остеррайхринг подвергся серьёзной модернизации и был переименован в А1-Ринг - в честь сотового оператора A1, который оплатил реконструкцию трека. С FOM Был заключен десятилетний контракт на проведение Гран-при Австрии в рамках чемпионата Формулы-1 - который и проводился с 1997 по 2003 год, но в 2003 году, из-за запрета на рекламу табачной продукции в стране, этот контракт был разорван Берни Экклстоуном.

После чего в 2004 году, в силу проблем с финансированием, а так же проблем с окружающей средой, основные здания автодрома были снесены, что сделало невозможным проведение автомобильных соревнований международного уровня.

С 2005 года начали появляться слухи о возможной реконструкции автодрома (планы были у экс-пилота Формулы-1 Александра Вурца, у компаний: Red Bull, VW, KTM и Magna International) в конечно счёте в 2008 году трассу выкупил владелец Red Bull Дитрих Матешиц, который переименовал А1-Ринг в Ред Булл Ринг и начал реконструкцию инфраструктуры автодрома. Конфигурация самого трека осталась неизменной.

В 2011 году на автодром близ Шпильберга вернулся чемпионат DTM, а в 2014 (спустя 11 лет) и Гран-При Формулы-1.

Краткое описание и изменения регламента в сезоне 2016 года:

Общие изменения

Международная Автомобильная Федерация (FIA) и администрация Формулы 1 (FOM) получат расширенные полномочия по изменению Технического регламента Формулы 1 и смогут принимать решения касательно управления спортом.

Технический регламент
- Все болиды должны быть оснащены специальным перепускным клапаном для того, чтобы направлять в него выхлопные газы. Его прозвали "кричащей трубой", так как он призван сделать болиды более громкими. Нынешнее поколение болидов было раскритиковано за едва слышный звук двигателей в то время, как громогласный рев двигателей болидов Формулы 1, традиционно считался неотъемлемой частью спорта.
- Компания Pirelli, занимающаяся поставкой шин в Формуле 1, представит новый сверхмягкий тип резины - Ultrasoft. Кроме того, в Pirelli изменят свой подход к выбору типов резины на гоночный уик-энд и будет привозить на каждый этап по три различных типа резины вместо двух. На гоночный уик-энд каждый пилот в общей сложности получает 13 комплектов шин. Два из них выбираются компанией Pirelli заранее, и каждый пилот обязан использовать хотя бы один из них в гонке. Еще один комплект самого мягкого из доступных типов резины зарезервирован для использования пилотом в третьем сегменте квалификации (если пилот не проходит в третий сегмент квалификации, то он обязан вернуть неиспользованный комплект). Оставшиеся 10 комплектов пилоты выбирают самостоятельно. Пилоты одной команды вправе использовать разные наборы типов шин. Выбор должен быть сделан не раньше, чем за две недели до старта гонки.
- В FIA приняли решение увеличить количество токенов, которые позволяют мотористам производить доработку своих силовых установок по ходу сезона. Первоначально планировалось предоставить каждому мотористу 15 токенов на сезон, но позже их количество было увеличено до 32. Именно столько токенов получили все мотористы в 2014 году. Данное решение было призвано помочь отстающим мотористам в лице Renault и Honda догнать своих конкурентов. Кроме того, мотористам разрешат дорабатывать некоторые элементы двигателей, которые изначально планировалось заморозить. В их число входит верхняя и нижняя части картера двигателя, газораспределительный механизм, коленчатый вал, пневматический привод клапан и вспомогательные системы.

Спортивный регламент
- Начиная с 2016 года, количество сессий предсезонных тестов будет сокращено с трех до двух.
- Серьезным изменениям был подвергнут формат квалификации.
- Стюардам предоставят больше полномочий при обеспечении соблюдения правил о границах трассы, которые обязывают гонщиков не выезжать за белую линию, очерчивающую трассу. Исключением являются ошибки пилотов.
- В случае отложенного старта гонки, пилот, который спровоцировал эту ситуацию, будет обязан стартовать с пит-лейна.
- Процедура начисления штрафов за смену двигателя или коробки передач была изменена таким образом, что штрафы применяются в том порядке, в котором они были получены.
- Система виртуального автомобиля безопасности (VSC) будет использоваться в сессиях практики, чтобы избежать необходимости останавливать сессию красными флагами.
- Теперь пилоты могут использовать DRS сразу после окончания режима виртуального автомобиля безопасности. Ранее им приходилось ждать два круга, прежде чем система была реактивирована.
- Изменен порядок приобретения пилотами суперлицензии Формулы 1. Добавлено несколько дополнительных ограничений, которые призваны избежать повторения ситуации с Максом Ферстаппеном, который получил свою суперлицензию в возрасте 16 лет после единственного сезона в европейской Формуле 3.

Календарь сезона 2016 года:

Команды и пилоты:

Составы команд чемпионата Формулы-1 сезона 2016 года. Представлены как официально подтверждённые пилоты, так и возможные кандидаты. Страница постоянно обновляется по мере появления новой информации в СМИ, а по мере проведения презентаций команд, будут изменяться и фото машин. Кликните по любому из изображений для перехода на страницу подробной статистики пилота или команды.











1-я свободная практика




2-я свободная практика



3-я свободная практика




Скриншоты:

Формула 1 2016 на Torrents43.com
Детали торрента:
Название:Формула 1. Гран-При Австрии. 1, 2, 3-ая свободная практика (2016) HDTVRip [H.264/720p] [hand made 50fps]
Дата добавления:02 Июл 2016 16:31:19
Размер:7,83 GB
Раздают:
Качают:0
Форум:Формула 1

All rights reserved © 2015-2018