TORRENTS43.COM

Скачать Лесник (2015) HDTV [H.264/1080i] (сезон 3, серии 1-48 из 48)


Лесник (2015) HDTV [H.264/1080i] (сезон 3, серии 1-48 из 48)
Производство: Россия / Мостелефильм
Жанр: детектив

Режиссер: Виктор Конисевич, Сергей Артимович
Актеры: Олег Штефанко, Анна Большова, Алексей Булдаков, Александр Цуркан, Дарья Повереннова, Полина Рахленко, Владимир Зайцев, Михаил Васьков, Анатолий Котенёв, Юлия Куварзина, Владимир Тимофеев и др.

Описание:
Продолжение сериала о бывшем спецназовце Леониде Зубове, который работает лесником в тайге. В новом сезоне отношения между полюбившимися героями сериала будут развиваться захватывающе. Сивый (Алексей Булдаков) наконец обретет личное счастье: он женится на местной библиотекарше Марии Миловановой (Ирина Аверина). А вот Зубову придется нелегко: он потеряет свою возлюбленную Елену, и его жизнь начнет катиться под откос. Единственная цель, которую будет преследовать Зубов, – это найти убийц любимой женщины и отомстить им. Удастся ли ему это сделать и не превратиться в злодея...


Возраст: 16+ (зрителям, достигшим 16 лет)

Продолжительность: ~00:45:00 серия
Качество видео: HDTV

Видео: AVC/H.264, 1920x1080 (16:9), ~9557 kbps
Аудио: MP2, 2 ch, 256 kbps

Mediainfo:


Формат : MPEG-TS
Размер файла : 3,19 Гбайт
Продолжительность : 44 м.
Режим общего битрейта : Переменный
Общий поток : 10,3 Мбит/сек

Видео
Идентификатор : 2202 (0x89A)
Идентификатор меню : 2201 (0x899)
Формат : AVC
Формат/Информация : Advanced Video Codec
Профиль формата : High@L4
Параметр CABAC формата : Да
Параметр ReFrames формата : 4 кадра
Идентификатор кодека : 27
Продолжительность : 44 м.
Битрейт : 9557 Кбит/сек
Ширина : 1920 пикселей
Высота : 1080 пикселей
Соотношение сторон : 16:9
Частота кадров : 25,000 кадров/сек
Стандарт вещания : Component
Цветовое пространство : YUV
Субдискретизация насыщенности : 4:2:0
Битовая глубина : 8 бит
Тип развёртки : Чересстрочная
Метод сохранения типа развёртки : Раздельные поля
Порядок развёртки : Верхнее поле первое
Бит/(Пиксели*Кадры) : 0.184
Размер потока : 2,96 Гбайт (93%)
Цветовой диапазон : Limited
Основные цвета : BT.709
Характеристики трансфера : BT.709
Коэффициенты матрицы : BT.709

Аудио
Идентификатор : 2203 (0x89B)
Идентификатор меню : 2201 (0x899)
Формат : MPEG Audio
Версия формата : Version 1
Профиль формата : Layer 2
Идентификатор кодека : 3
Продолжительность : 44 м.
Вид битрейта : Постоянный
Битрейт : 256 Кбит/сек
Каналы : 2 канала
Частота : 48,0 КГц
Метод сжатия : С потерями
Задержка видео : -80 мс.
Размер потока : 81,1 Мбайт (2%)
Язык : Russian
Скриншоты:


Все одноименные релизы в Клубе

Смотреть Online

http://moonwalk.cc/serial/80b7a232685be2ea5ba86e0c4ed43587/iframe
Детали торрента:
Название:Лесник (2015) HDTV [H.264/1080i] (сезон 3, серии 1-48 из 48)
Дата добавления:03 Июл 2016 10:51:17
Размер:135 GB
Раздают:1
Качают:0
Форум:Отечественные сериалы

All rights reserved © 2015-2018