TORRENTS43.COM

Скачать Механик: Воскрешение / Mechanic: Resurrection (2016) WEBRip [H.264/1080p] [Трейлер]


Механик: Воскрешение / Mechanic: Resurrection (2016) WEBRip
Производство: Франция, США / Chartoff-Winkler Productions, Davis-Films, ME2 Productions
Жанр: Боевик, Триллер, Криминал

Режиссер: Деннис Ганзель
Актеры: Джейсон Стэйтем, Джессика Альба, Томми Ли Джонс, Мишель Йео, Наталия Гуслистая, Сэм Хэзелдайн, Аарон Брамфилд

Описание:
Артура Бишопа, давно оставившего свое криминальное ремесло, вынуждают снова вступить в игру. Чтобы похитители вернули его возлюбленную, он должен сделать то, что у него получается лучше всего: от него требуется совершить три убийства, идеально обставленных как несчастные случаи.



Возраст: 18+ (зрителям, достигшим 18 лет. запрещено для детей)
Рейтинг MPAA: R (лицам до 17 лет обязательно присутствие взрослого)
Дата мировой премьеры: 24 августа 2016
Дата российской премьеры: 25 августа 2016, «MEGOGO Distribution»

Продолжительность: 00:02:03
Качество видео: WEBRip
Перевод: Одноголосый закадровый, любительский

Видео: AVC, 1920x816 (2.35:1), 23.976 fps, 20.1 Mbps (0.501 bit/pixel)
Аудио: AC-3, 48.0 KHz, 2 ch, 320 Kbps, CBR (Russian)

Mediainfo:

Код:

General
Unique ID                   : 212875988809758084005649568895001957831 (0xA0266C93B76F2818B79472781B3015C7)
Complete name               : E:\Mechanic2.2016.TRL.RUS.mkv
Format                      : Matroska
Format version              : Version 4 / Version 2
File size                   : 285 MiB
Duration                    : 2mn 2s
Overall bit rate            : 19.5 Mbps
Movie name                  : В-А для NNM
Encoded date                : UTC 2016-07-05 18:12:15
Writing application         : mkvmerge v8.9.0 ('Father Daughter') 64bit
Writing library             : libebml v1.3.3 + libmatroska v1.4.4
Cover                       : Yes
Attachments                 : cover.jpg

Video
ID                          : 1
Format                      : AVC
Format/Info                 : Advanced Video Codec
Format profile              : High@L4.1
Format settings, CABAC      : Yes
Format settings, ReFrames   : 4 frames
Codec ID                    : V_MPEG4/ISO/AVC
Duration                    : 2mn 2s
Bit rate                    : 20.1 Mbps
Width                       : 1 920 pixels
Height                      : 816 pixels
Display aspect ratio        : 2.35:1
Frame rate mode             : Constant
Frame rate                  : 23.976 (23976/1000) fps
Color space                 : YUV
Chroma subsampling          : 4:2:0
Bit depth                   : 8 bits
Scan type                   : Progressive
Bits/(Pixel*Frame)          : 0.534
Stream size                 : 281 MiB (98%)
Writing library             : x264 core 144 r2533 c8a773e
Encoding settings           : cabac=1 / ref=4 / deblock=1:0:0 / analyse=0x3:0x113 / me=umh / subme=8 / psy=1 / psy_rd=1.00:0.00 / mixed_ref=1 / me_range=24 / chroma_me=1 / trellis=1 / 8x8dct=1 / cqm=0 / deadzone=21,11 / fast_pskip=1 / chroma_qp_offset=-2 / threads=6 / lookahead_threads=1 / sliced_threads=0 / nr=0 / decimate=1 / interlaced=0 / bluray_compat=0 / constrained_intra=0 / bframes=3 / b_pyramid=0 / b_adapt=2 / b_bias=0 / direct=3 / weightb=1 / open_gop=0 / weightp=2 / keyint=250 / keyint_min=25 / scenecut=40 / intra_refresh=0 / rc_lookahead=40 / rc=abr / mbtree=1 / bitrate=20068 / ratetol=1.0 / qcomp=0.60 / qpmin=10 / qpmax=51 / qpstep=4 / ip_ratio=1.41 / aq=1:1.00
Language                    : English
Default                     : Yes
Forced                      : No

Audio
ID                          : 2
Format                      : AC-3
Format/Info                 : Audio Coding 3
Mode extension              : CM (complete main)
Format settings, Endianness : Big
Codec ID                    : A_AC3
Duration                    : 2mn 2s
Bit rate mode               : Constant
Bit rate                    : 320 Kbps
Channel(s)                  : 2 channels
Channel positions           : Front: L R
Sampling rate               : 48.0 KHz
Frame rate                  : 31.250 fps (1536 spf)
Compression mode            : Lossy
Delay relative to video     : -5ms
Stream size                 : 4.68 MiB (2%)
Title                       : Любительский одноголосый
Language                    : Russian
Default                     : Yes
Forced                      : No
Скриншоты:


Смотреть Online

http://moonwalk.cc/video/8583079136843715/iframe
Детали торрента:
Название:Механик: Воскрешение / Mechanic: Resurrection (2016) WEBRip [H.264/1080p] [Трейлер]
Дата добавления:05 Июл 2016 21:30:38
Размер:285 MB
Раздают:
Качают:0
Форум:Архив Видео

All rights reserved © 2015-2018