TORRENTS43.COM

Скачать Однажды нoчью / Тoй ночью / The Night Оf (2016) HDTVRip [H.264/1080p-LQ] (сезон 1, серии 1-8 из 8) NewStudio


Однажды нoчью / Тoй ночью / The Night Оf (2016) HDTVRip [H.264/1080p-LQ] (сезон 1, серии 1-8 из 8)
Производство: США
Жанр: драма, криминал

Режиссер: Стивен Зеллиан, Джеймс Маршкер
Актеры: Пурна Джаганнатхан, Сиам М. Лафи, Джон Туртурро, Дэвид Чен, Амара Каран, Реджинальд Барнс, Крис Брайант, Ксавьер Кадо, Лорд Джамар, Кристофер Жиро и др.

Описание:
После бурной ночи с незнакомкой, парень просыпается с ее трупом у себя под боком и все обвинения падают на него.


Дата мировой премьеры: 24 июня 2016
Дата премьеры в России: 11 июля 2016


Продолжительность: ~ 01:19:00 серия
Качество видео: HDTVRip
Перевод: Многоголосый закадровый, профессиональный - NewStudio (ненормативная лексика)
Реклама: присутствуют аудио и видео вставки рекламы.

ВНИМАНИЕ! Присутствует ненормативная лексика!

Видео: AVC/H.264, 1920x1080 (16:9), ~5000 Kbps
Аудио Rus: AC3, 48,0 kHz, 6 ch, 384 Kbps - многоголосый закадровый
Аудио Eng: AC3, 48,0 kHz, 6 ch, 640 Kbps - оригинал

Mediainfo:

Код: выделить все

The.Night.Of.s01e01.HDTV.1080p.NewStudio.mkv
Format                      : Matroska
Format version              : Version 4 / Version 2
File size                   : 3.19 GiB
Duration                    : 1h 18mn
Overall bit rate            : 5 810 Kbps
Movie name                  : The.Night.Of.S01E01.The.Beach.1080p.HDTV.DD5.1.x264-CasStudio
Encoded date                : UTC 2016-07-05 12:19:26
Writing application         : mkvmerge v8.2.0 ('World of Adventure') 32bit
Writing library             : libebml v1.3.1 + libmatroska v1.4.2

Video
ID                          : 1
Format                      : AVC
Format/Info                 : Advanced Video Codec
Format profile              : High@L4.1
Format settings, CABAC      : Yes
Format settings, ReFrames   : 4 frames
Codec ID                    : V_MPEG4/ISO/AVC
Duration                    : 1h 18mn
Bit rate                    : 5 000 Kbps
Width                       : 1 920 pixels
Height                      : 1 080 pixels
Display aspect ratio        : 16:9
Frame rate mode             : Constant
Frame rate                  : 23.976 (24000/1001) fps
Color space                 : YUV
Chroma subsampling          : 4:2:0
Bit depth                   : 8 bits
Scan type                   : Progressive
Bits/(Pixel*Frame)          : 0.101
Stream size                 : 2.63 GiB (82%)
Writing library             : x264 core 142 r2491 24e4fed
Encoding settings           : cabac=1 / ref=3 / deblock=1:1:-1 / analyse=0x3:0x133 / me=umh / subme=9 / psy=1 / psy_rd=1.00:0.00 / mixed_ref=1 / me_range=48 / chroma_me=1 / trellis=2 / 8x8dct=1 / cqm=0 / deadzone=21,11 / fast_pskip=0 / chroma_qp_offset=-2 / threads=36 / lookahead_threads=4 / sliced_threads=0 / slices=4 / nr=0 / decimate=1 / interlaced=0 / bluray_compat=0 / constrained_intra=0 / bframes=6 / b_pyramid=2 / b_adapt=2 / b_bias=0 / direct=3 / weightb=1 / open_gop=0 / weightp=2 / keyint=250 / keyint_min=22 / scenecut=40 / intra_refresh=0 / rc_lookahead=50 / rc=2pass / mbtree=1 / bitrate=5000 / ratetol=1.0 / qcomp=0.70 / qpmin=10 / qpmax=49 / qpstep=4 / cplxblur=20.0 / qblur=0.5 / vbv_maxrate=9000 / vbv_bufsize=2500 / nal_hrd=none / filler=0 / ip_ratio=1.40 / aq=1:1.00
Language                    : English
Default                     : Yes
Forced                      : No

Audio #1
ID                          : 2
Format                      : AC-3
Format/Info                 : Audio Coding 3
Mode extension              : CM (complete main)
Format settings, Endianness : Big
Codec ID                    : A_AC3
Duration                    : 1h 18mn
Bit rate mode               : Constant
Bit rate                    : 384 Kbps
Channel(s)                  : 6 channels
Channel positions           : Front: L C R, Side: L R, LFE
Sampling rate               : 48.0 KHz
Frame rate                  : 31.250 fps (1536 spf)
Compression mode            : Lossy
Delay relative to video     : 12ms
Stream size                 : 216 MiB (7%)
Title                       : NewStudio.TV
Language                    : Russian
Default                     : Yes
Forced                      : No

Audio #2
ID                          : 3
Format                      : AC-3
Format/Info                 : Audio Coding 3
Mode extension              : CM (complete main)
Format settings, Endianness : Big
Codec ID                    : A_AC3
Duration                    : 1h 18mn
Bit rate mode               : Constant
Bit rate                    : 640 Kbps
Channel(s)                  : 6 channels
Channel positions           : Front: L C R, Side: L R, LFE
Sampling rate               : 48.0 KHz
Frame rate                  : 31.250 fps (1536 spf)
Compression mode            : Lossy
Stream size                 : 360 MiB (11%)
Language                    : English
Default                     : No
Forced                      : No

Список серий

01. The Beach / Пляж
02. Subtle Beast / Деликатная бестия
03. A Dark Crate / Темный Ящик
04. The Art of War / Искусство войны
05. The Season of the Witch / Не твой день
06. Samson and Delilah / Самсон и Далила
07. Ordinary Death / Обычная смерть
08. The Call of the Wild / Зов природы
Скриншоты:


Все одноименные релизы в Клубе

Смотреть Online

http://moonwalk.cc/video/f657d4a8525b1200814d54eacec6d024/iframe
Детали торрента:
Название:Однажды нoчью / Тoй ночью / The Night Оf (2016) HDTVRip [H.264/1080p-LQ] (сезон 1, серии 1-8 из 8) NewStudio
Дата добавления:31 Авг 2016 12:20:37
Размер:16,2 GB
Раздают:2
Качают:0
Форум:Зарубежные сериалы

All rights reserved © 2015-2018