TORRENTS43.COM

Скачать Valor - The Yonder Answer (2013) [FLAC|Lossless|image + .cue] <Heavy Metal, Power Metal>


Valor - The Yonder Answer (2013)
Год: 2013
Жанр: Heavy Metal, Power Metal
Издание: Pitch Black Records – PBR019
Благодарность: Sem70
Сканы: есть
Продолжительность: 00:42:01

Кодек: FLAC
Битрейт: Lossless
Тип рипа: image + .cue

Треклист:

01. The Journey Begins 02:12
02. The Answer’s Yonder 03:50
03. Crossroads 04:08
04. The Guides 06:03
05. Follow Me 06:51
06. The Bravest Of Them All 01:48
07. Choices 04:48
08. One Hand Red 04:25
09. H.U.M.A.N. 04:08
10. Inner Nature 03:43

Дополнительная информация:

Discogs
Состав:
Chris Remoundos Bass
See also: ex-Battleroar
Spyros Soldatos Guitars
Vaggelis Krouskas Vocals
See also: ex-Battleroar
Thodoris Andritsos Drums
Kourkoutas Vasilis Guitars

Отчёт EAC:

Код:

Exact Audio Copy V1.0 beta 3 from 29. August 2011

EAC extraction logfile from 21. September 2014, 23:53

Valor / The Yonder Answer

Used drive  : PLEXTOR BD-R   PX-B940SA   Adapter: 5  ID: 0

Read mode               : Secure
Utilize accurate stream : Yes
Defeat audio cache      : Yes
Make use of C2 pointers : No

Read offset correction                      : 667
Overread into Lead-In and Lead-Out          : No
Fill up missing offset samples with silence : Yes
Delete leading and trailing silent blocks   : No
Null samples used in CRC calculations       : Yes
Used interface                              : Installed external ASPI interface

Used output format              : User Defined Encoder
Selected bitrate                : 128 kBit/s
Quality                         : High
Add ID3 tag                     : Yes
Command line compressor         : G:\Program Files (x86)\Exact Audio Copy\Flac\flac.exe
Additional command line options : -V -8 -T "Date=%year%" -T "Genre=%genre%" %source%

TOC of the extracted CD

     Track |   Start  |  Length  | Start sector | End sector
    ---------------------------------------------------------
        1  |  0:00.00 |  2:12.34 |         0    |     9933
        2  |  2:12.34 |  3:50.51 |      9934    |    27234
        3  |  6:03.10 |  4:08.30 |     27235    |    45864
        4  | 10:11.40 |  6:03.24 |     45865    |    73113
        5  | 16:14.64 |  6:51.53 |     73114    |   103991
        6  | 23:06.42 |  1:48.44 |    103992    |   112135
        7  | 24:55.11 |  4:48.48 |    112136    |   133783
        8  | 29:43.59 |  4:25.40 |    133784    |   153698
        9  | 34:09.24 |  4:08.64 |    153699    |   172362
       10  | 38:18.13 |  3:43.52 |    172363    |   189139

Range status and errors

Selected range

     Filename D:\MUSIC\Valor - The Yonder Answer.wav

     Peak level 100.0 %
     Extraction speed 4.4 X
     Range quality 99.9 %
     Test CRC 83FCF2E7
     Copy CRC 83FCF2E7
     Copy OK

No errors occurred

AccurateRip summary

Track  1  accurately ripped (confidence 1)  [2DDF7C39]  (AR v2)
Track  2  accurately ripped (confidence 1)  [1996699D]  (AR v2)
Track  3  accurately ripped (confidence 1)  [87F03F7C]  (AR v2)
Track  4  accurately ripped (confidence 1)  [38492DC4]  (AR v2)
Track  5  accurately ripped (confidence 1)  [741B7780]  (AR v2)
Track  6  accurately ripped (confidence 1)  [1223086A]  (AR v2)
Track  7  accurately ripped (confidence 1)  [9DD3AAF4]  (AR v2)
Track  8  accurately ripped (confidence 1)  [4EFC0C98]  (AR v2)
Track  9  accurately ripped (confidence 1)  [D5031D23]  (AR v2)
Track 10  accurately ripped (confidence 1)  [466329E9]  (AR v2)

All tracks accurately ripped

End of status report

==== Log checksum B65451291807DA137A809A94BD94DCFCDB47821DA14B2A575289B4360D5F7A51 ====

Cue Sheet (.cue):

Код:

REM GENRE Power Metal
REM DATE 2013
REM DISCID 8309D90A
REM COMMENT ExactAudioCopy v1.0b3
PERFORMER "Valor"
TITLE "The Yonder Answer"
FILE "Valor - The Yonder Answer.flac" WAVE
  TRACK 01 AUDIO
    TITLE " Intro – The Journey Begins"
    INDEX 01 00:00:00
  TRACK 02 AUDIO
    TITLE " The Answer’s Yonder"
    INDEX 01 02:12:34
  TRACK 03 AUDIO
    TITLE " Crossroads"
    INDEX 00 06:01:10
    INDEX 01 06:03:10
  TRACK 04 AUDIO
    TITLE " The Guides"
    INDEX 00 10:09:40
    INDEX 01 10:11:40
  TRACK 05 AUDIO
    TITLE "  Follow Me"
    INDEX 00 16:12:64
    INDEX 01 16:14:64
  TRACK 06 AUDIO
    TITLE "  The Bravest Of Them All"
    INDEX 00 23:04:42
    INDEX 01 23:06:42
  TRACK 07 AUDIO
    TITLE "  Choices"
    INDEX 00 24:53:11
    INDEX 01 24:55:11
  TRACK 08 AUDIO
    TITLE " One Hand Red"
    INDEX 00 29:41:59
    INDEX 01 29:43:59
  TRACK 09 AUDIO
    TITLE " H.U.M.A.N."
    INDEX 00 34:07:24
    INDEX 01 34:09:24
  TRACK 10 AUDIO
    TITLE "  Inner Nature"
    INDEX 00 38:16:13
    INDEX 01 38:18:13

Отчёт auCDtect Task manager:

Код:

-----------------------

DON'T MODIFY THIS FILE

-----------------------

PERFORMER: auCDtect Task Manager, ver. 1.6.0 RC1 build 1.6.0.1
Copyright (c) 2008-2010 y-soft. All rights reserved
http://y-soft.org

ANALYZER: auCDtect: CD records authenticity detector, version 0.8.2
Copyright (c) 2004 Oleg Berngardt. All rights reserved.
Copyright (c) 2004 Alexander Djourik. All rights reserved.

FILE: Valor - The Yonder Answer.flac
  Size: 305102272 Hash: 1A72F7A20DF44311D28219050782DEFE Accuracy: -m0
  Conclusion: CDDA 100%
  Signature: BAD00004C0CCF3533D237A4B5C5EC760BAC7705F

YouTube YouTube
Детали торрента:
Название:Valor - The Yonder Answer (2013) [FLAC|Lossless|image + .cue] <Heavy Metal, Power Metal>
Дата добавления:12 Июл 2016 16:54:23
Размер:304 MB
Раздают:1
Качают:0
Форум:Metal (Lossless)

All rights reserved © 2015-2018