TORRENTS43.COM

Скачать Trick Or Treat - Rabbits' Hill Pt.2 (2016) [FLAC|Lossless|image + .cue] <Power Metal, Heavy Metal>


Trick Or Treat - Rabbits' Hill Pt.2 (2016)
Год: 2016
Жанр: Power Metal, Heavy Metal
Издание: Frontiers Records - FR CD 744
Страна: Italy
Продолжительность: 0:59:47

Кодек: FLAC
Битрейт: Lossless
Тип рипа: image + .cue

Треклист:
01. Inle' (The Black Rabbit Of Death)
02. Together Again
03. Cloudrider
04. Efrafa
05. Never Say Goodbye
06. The Great Escape
07. They Must Die
08. Beware The Train
09. United
10. The Showdown
11. Last Breath

Отчёт EAC:

Код:

Exact Audio Copy V1.1 from 23. June 2015

EAC extraction logfile from 12. July 2016, 19:06

Trick Or Treat / Rabbits' Hill Pt.2

Used drive  : HL-DT-STBD-RE  BH14NS40   Adapter: 1  ID: 2

Read mode               : Secure
Utilize accurate stream : Yes
Defeat audio cache      : Yes
Make use of C2 pointers : No

Read offset correction                      : 6
Overread into Lead-In and Lead-Out          : No
Fill up missing offset samples with silence : Yes
Delete leading and trailing silent blocks   : No
Null samples used in CRC calculations       : Yes
Used interface                              : Native Win32 interface for Win NT & 2000

Used output format              : User Defined Encoder
Selected bitrate                : 896 kBit/s
Quality                         : High
Add ID3 tag                     : No
Command line compressor         : C:\Program Files\Exact Audio Copy\Flac\flac.exe
Additional command line options : -V -8 -T "Date=%year%" -T "Genre=%genre%" %source%

TOC of the extracted CD

     Track |   Start  |  Length  | Start sector | End sector
    ---------------------------------------------------------
        1  |  0:00.00 |  5:01.25 |         0    |    22599
        2  |  5:01.25 |  2:42.18 |     22600    |    34767
        3  |  7:43.43 |  4:15.51 |     34768    |    53943
        4  | 11:59.19 |  6:37.08 |     53944    |    83726
        5  | 18:36.27 |  5:47.50 |     83727    |   109801
        6  | 24:24.02 |  4:55.57 |    109802    |   131983
        7  | 29:19.59 |  6:04.48 |    131984    |   159331
        8  | 35:24.32 |  2:37.32 |    159332    |   171138
        9  | 38:01.64 |  4:52.37 |    171139    |   193075
       10  | 42:54.26 | 10:47.12 |    193076    |   241612
       11  | 53:41.38 |  6:05.41 |    241613    |   269028

Range status and errors

Selected range

     Filename E:\Trick Or Treat - Rabbits' Hill Pt. 2 (2016)\Trick Or Treat.wav

     Peak level 100.0 %
     Extraction speed 2.2 X
     Range quality 100.0 %
     Test CRC D25E58F5
     Copy CRC D25E58F5
     Copy OK

No errors occurred

AccurateRip summary

Track  1  not present in database
Track  2  not present in database
Track  3  not present in database
Track  4  not present in database
Track  5  not present in database
Track  6  not present in database
Track  7  not present in database
Track  8  not present in database
Track  9  not present in database
Track 10  not present in database
Track 11  not present in database

None of the tracks are present in the AccurateRip database

End of status report

---- CUETools DB Plugin V2.1.6

[CTDB TOCID: 7ynVL07gNPsxPRGCQdMgkOFhz_w-] found
Submit result: 7ynVL07gNPsxPRGCQdMgkOFhz_w- has been confirmed
Track | CTDB Status
  1   | (1/1) Accurately ripped
  2   | (1/1) Accurately ripped
  3   | (1/1) Accurately ripped
  4   | (1/1) Accurately ripped
  5   | (1/1) Accurately ripped
  6   | (1/1) Accurately ripped
  7   | (1/1) Accurately ripped
  8   | (1/1) Accurately ripped
  9   | (1/1) Accurately ripped
 10   | (1/1) Accurately ripped
 11   | (1/1) Accurately ripped

==== Log checksum 134F80FA7B8899DB6B17647A8272DB1835D9F313A6B970F518D1A89081BDA750 ====

Cue Sheet (.cue):

Код:

REM GENRE "Power Metal"
REM DATE 2016
REM DISCID 840E030B
REM COMMENT "ExactAudioCopy v1.1"
PERFORMER "Trick Or Treat"
TITLE "Rabbits' Hill Pt.2"
FILE "Trick Or Treat.flac" WAVE
  TRACK 01 AUDIO
    TITLE "Inle' (The Black Rabbit of Death)"
    PERFORMER "Trick Or Treat"
    INDEX 01 00:00:00
  TRACK 02 AUDIO
    TITLE "Together Again"
    PERFORMER "Trick Or Treat"
    INDEX 01 05:01:25
  TRACK 03 AUDIO
    TITLE "Cloudrider"
    PERFORMER "Trick Or Treat"
    INDEX 01 07:43:43
  TRACK 04 AUDIO
    TITLE "Efrafa"
    PERFORMER "Trick Or Treat"
    INDEX 01 11:59:19
  TRACK 05 AUDIO
    TITLE "Never Say Goodbye"
    PERFORMER "Trick Or Treat"
    INDEX 01 18:36:27
  TRACK 06 AUDIO
    TITLE "The Great Escape"
    PERFORMER "Trick Or Treat"
    INDEX 01 24:24:02
  TRACK 07 AUDIO
    TITLE "They Must Die"
    PERFORMER "Trick Or Treat"
    INDEX 01 29:19:59
  TRACK 08 AUDIO
    TITLE "Beware The Train"
    PERFORMER "Trick Or Treat"
    INDEX 01 35:24:32
  TRACK 09 AUDIO
    TITLE "United"
    PERFORMER "Trick Or Treat"
    INDEX 01 38:01:64
  TRACK 10 AUDIO
    TITLE "The Showdown"
    PERFORMER "Trick Or Treat"
    INDEX 01 42:54:26
  TRACK 11 AUDIO
    TITLE "Last Breath"
    PERFORMER "Trick Or Treat"
    INDEX 01 53:41:38

Отчёт auCDtect Task manager:

Код:

-----------------------

DON'T MODIFY THIS FILE

-----------------------

PERFORMER: auCDtect Task Manager, ver. 1.6.0 RC1 build 1.6.0.1
Copyright (c) 2008-2010 y-soft. All rights reserved
http://y-soft.org

ANALYZER: auCDtect: CD records authenticity detector, version 0.8.2
Copyright (c) 2004 Oleg Berngardt. All rights reserved.
Copyright (c) 2004 Alexander Djourik. All rights reserved.

FILE: Trick Or Treat.flac
  Size: 439655013 Hash: 94EE9662C5096B20B93CF3F79CCE8BC5 Accuracy: -m0
  Conclusion: CDDA 100%
  Signature: 2ADAB25A4523C44FD41426190B6DE253827ED2C3

Спектрограмма:

YouTube YouTube


Поглощение/вытеснение
Только с согласия релизера

Pashketan
Детали торрента:
Название:Trick Or Treat - Rabbits' Hill Pt.2 (2016) [FLAC|Lossless|image + .cue] <Power Metal, Heavy Metal>
Дата добавления:18 Июл 2016 18:48:08
Размер:438 MB
Раздают:
Качают:0
Форум:Metal (Lossless)

All rights reserved © 2015-2018