TORRENTS43.COM

Скачать Группа «Зета» / Группа Zeta (2007) SATRip [H.264] (серии 1-8 из 8)


Группа «Зета» / Группа Zeta (2007) SATRip [H.264] (серии 1-8 из 8)
Производство: Россия / «Intra Communications»
Жанр: боевик, криминал

Режиссер: Виктор Татарский
Актеры: Олег Штефанко, Алексей Жарков, Сергей Чудаков, Евгения Игумнова, Олег Абалян, Андрей Смоляков, Сергей Барковский, Валерий Кухарешин, Ярослав Бойко, Александр Большаков, Екатерина Старателева, Сергей Уманов, Юлия Джербинова и др.

Описание:
Захвачен автобус с заложниками. Подполковник спецподразделения Алексей Тимофеев понимает — с бандитами не договориться. Их требования неприемлемы. Среди ни в чем не повинных людей появляются первые жертвы. Тимофеев решает в одиночку освободить заложников. Операция проведена успешно. Но вместо благодарности подполковника со скандалом увольняют из армии.


Возраст: 16+ (зрителям, достигшим 16 лет)

Релиз от: ExKinoRay
Продолжительность: ~00:44:00 серия
Качество видео: SATRip

Видео: AVC/H.264, 720х400, ~1500 Кбит/сек
Аудио: AC3, 2 канала, 192 Кбит/сек, CBR

Mediainfo:

Код:

Общее
Уникальный идентификатор : 239521327854461227846179713988161117489 (0xB43221382D17CEF3AA59D5ADBADB1D31)
Полное имя : H:\Группа Zeta\01 серия_Группа Zeta_rip by_Aleksan55.mkv
Формат : Matroska
Версия формата : Version 2
Размер файла : 537 Мбайт
Продолжительность : 44 м.
Общий поток : 1693 Кбит/сек
Дата кодирования : UTC 2016-07-18 14:43:51
Программа кодирования : mkvmerge v7.8.0 ('River Man') 32bit built on Apr 3 2015 12:11:22
Библиотека кодирования : libebml v1.3.1 + libmatroska v1.4.2

Видео
Идентификатор : 1
Формат : AVC
Формат/Информация : Advanced Video Codec
Профиль формата : High@L4.1
Параметр CABAC формата : Да
Параметр ReFrames формата : 12 кадров
Идентификатор кодека : V_MPEG4/ISO/AVC
Продолжительность : 44 м.
Битрейт : 1500 Кбит/сек
Ширина : 720 пикселей
Высота : 400 пикселей
Соотношение сторон : 16:9
Режим частоты кадров : Постоянный
Частота кадров : 25,000 кадров/сек
Цветовое пространство : YUV
Субдискретизация насыщенности : 4:2:0
Битовая глубина : 8 бит
Тип развёртки : Прогрессивная
Бит/(Пиксели*Кадры) : 0.208
Размер потока : 465 Мбайт (87%)
Библиотека кодирования : x264 core 146 r2538 121396c
Настройки программы : cabac=1 / ref=12 / deblock=1:-2:-2 / analyse=0x3:0x113 / me=umh / subme=9 / psy=1 / psy_rd=1.00:0.25 / mixed_ref=0 / me_range=32 / chroma_me=1 / trellis=2 / 8x8dct=1 / cqm=0 / deadzone=21,11 / fast_pskip=1 / chroma_qp_offset=-4 / threads=3 / lookahead_threads=3 / sliced_threads=0 / nr=0 / decimate=1 / interlaced=0 / bluray_compat=0 / constrained_intra=0 / bframes=12 / b_pyramid=2 / b_adapt=1 / b_bias=0 / direct=3 / weightb=1 / open_gop=0 / weightp=2 / keyint=250 / keyint_min=25 / scenecut=40 / intra_refresh=0 / rc_lookahead=40 / rc=2pass / mbtree=1 / bitrate=1500 / ratetol=1.0 / qcomp=0.60 / qpmin=0 / qpmax=69 / qpstep=4 / cplxblur=20.0 / qblur=0.5 / ip_ratio=1.40 / aq=1:1.00
Default : Да
Forced : Нет
Цветовой диапазон : Limited
Основные цвета : BT.601 PAL
Характеристики трансфера : BT.470 System B, BT.470 System G
Коэффициенты матрицы : BT.601

Аудио
Идентификатор : 2
Формат : AC-3
Формат/Информация : Audio Coding 3
Расширение режима : CM (complete main)
Параметр Endianness формата : Big
Идентификатор кодека : A_AC3
Продолжительность : 44 м.
Вид битрейта : Постоянный
Битрейт : 192 Кбит/сек
Каналы : 2 канала
Расположение каналов : Front: L R
Частота : 48,0 КГц
Метод сжатия : С потерями
Размер потока : 60,9 Мбайт (11%)
Default : Да
Forced : Нет
Скриншоты:


Все одноименные релизы в Клубе
Детали торрента:
Название:Группа «Зета» / Группа Zeta (2007) SATRip [H.264] (серии 1-8 из 8)
Дата добавления:20 Июл 2016 17:03:09
Размер:4,2 GB
Раздают:1
Качают:0
Форум:Отечественные сериалы

All rights reserved © 2015-2018