TORRENTS43.COM

Скачать Мистер Робот / Mr. Robot (2016) HDTVRip [H.264/720p-LQ] (сезон 2, серии 1-12 из 12) Jaskier


Мистер Робот / Mr. Robot (2016) HDTVRip [H.264/720p-LQ] (сезон 2, серии 1-12 из 12)
Производство: США
Жанр: триллер, драма, криминал

Режиссер: Нильс Арден Оплев
Актеры: Рами Малек, Брюс Олтмен, Майкл Бушеми, Карли Чаикин, Самрат Чакрабарти, Портия Даблдэй, Маурицио Ферриньо, Майкл Гилл, Джереми С. Холм, Диллон Мэтьюз и др.

Описание:
История молодого программиста Эллиота, страдающего диссоциальным расстройством личности и решившего, что единственный приемлемый для него способ взаимодействия с людьми - это профессия хакера. Таким образом, он быстро оказывается в том самом месте, где пересекаются интересы его работодателя - фирмы, занимающейся кибербезопасностью, - и подпольных организаций, которые пытаются его завербовать с целью обрушения самых могучих американских корпораций.



Релиз от: Jaskier

Продолжительность: ~ 00:41:00 серия (~01:03:00 вторая и третья серия)
Качество видео: HDTVRip
Перевод: Многоголосый закадровый, профессиональный - Jaskier
Реклама: присутствуют аудио вставки рекламы

Видео: AVC/H.264, 1280x718 (16:9), ~1643 kbps
Аудио #1 Rus: AC3, 2 ch, 192 Kbps - многоголосый закадровый
Аудио #2 Eng: AC3, 6 ch, 384 Kbps - оригинал

Mediainfo:

Код: выделить все

General
Unique ID                   : 252022853294148519772414548492842571278 (0xBD99D602F9DF99E6AAF3EB0A4DFE160E)
Complete name               : E:\down\Films\Mr. Robot. Season 2.0 (HDTVRip l 720p l Jaskier)\Mr.Robot.S02E01.720p.HDTV.x264-JASKiER.mkv
Format                      : Matroska
Format version              : Version 1
File size                   : 654 MiB
Duration                    : 40mn 23s
Overall bit rate            : 2 264 Kbps
Encoded date                : UTC 2016-07-15 15:58:18
Writing application         : mkvmerge v2.3.0 ('Freak U') built on Sep  8 2008 18:32:16
Writing library             : libebml v0.7.7 + libmatroska v0.8.1

Video
ID                          : 1
Format                      : AVC
Format/Info                 : Advanced Video Codec
Format profile              : High@L4.1
Format settings, CABAC      : Yes
Format settings, ReFrames   : 5 frames
Codec ID                    : V_MPEG4/ISO/AVC
Duration                    : 40mn 23s
Bit rate                    : 1 643 Kbps
Width                       : 1 280 pixels
Height                      : 718 pixels
Display aspect ratio        : 16:9
Frame rate mode             : Constant
Frame rate                  : 23.976 (24000/1001) fps
Color space                 : YUV
Chroma subsampling          : 4:2:0
Bit depth                   : 8 bits
Scan type                   : Progressive
Bits/(Pixel*Frame)          : 0.075
Stream size                 : 475 MiB (73%)
Writing library             : x264 core 148 r2705 3f5ed56
Encoding settings           : cabac=1 / ref=5 / deblock=1:0:0 / analyse=0x3:0x113 / me=umh / subme=8 / psy=1 / psy_rd=1.00:0.00 / mixed_ref=1 / me_range=16 / chroma_me=1 / trellis=1 / 8x8dct=1 / cqm=0 / deadzone=21,11 / fast_pskip=1 / chroma_qp_offset=-2 / threads=22 / lookahead_threads=3 / sliced_threads=0 / nr=0 / decimate=1 / interlaced=0 / bluray_compat=0 / constrained_intra=0 / bframes=3 / b_pyramid=2 / b_adapt=2 / b_bias=0 / direct=3 / weightb=1 / open_gop=0 / weightp=2 / keyint=250 / keyint_min=23 / scenecut=40 / intra_refresh=0 / rc_lookahead=50 / rc=crf / mbtree=1 / crf=18.0 / qcomp=0.60 / qpmin=0 / qpmax=69 / qpstep=4 / ip_ratio=1.40 / aq=1:1.00
Default                     : Yes
Forced                      : No
Color range                 : Limited
Matrix coefficients         : BT.709

Audio #1
ID                          : 2
Format                      : AC-3
Format/Info                 : Audio Coding 3
Mode extension              : CM (complete main)
Format settings, Endianness : Big
Codec ID                    : A_AC3
Duration                    : 40mn 23s
Bit rate mode               : Constant
Bit rate                    : 192 Kbps
Channel(s)                  : 2 channels
Channel positions           : Front: L R
Sampling rate               : 48.0 KHz
Frame rate                  : 31.250 fps (1536 spf)
Compression mode            : Lossy
Stream size                 : 55.5 MiB (8%)
Language                    : Russian
Default                     : Yes
Forced                      : No

Audio #2
ID                          : 3
Format                      : AC-3
Format/Info                 : Audio Coding 3
Mode extension              : CM (complete main)
Format settings, Endianness : Big
Codec ID                    : A_AC3
Duration                    : 40mn 23s
Bit rate mode               : Constant
Bit rate                    : 384 Kbps
Channel(s)                  : 6 channels
Channel positions           : Front: L C R, Side: L R, LFE
Sampling rate               : 48.0 KHz
Frame rate                  : 31.250 fps (1536 spf)
Compression mode            : Lossy
Stream size                 : 111 MiB (17%)
Language                    : English
Default                     : No
Forced                      : No

Внимание! Раздача ведётся путём добавления новых серий

Внимание! Раздача ведётся путём добавления новых серий; при каждом добавлении создаётся новый торрент.
Чтобы начать докачку новой серии, пользователям необходимо сделать следующее:
1. Остановить скачивание;
2. Удалить старый торрент у себя из клиента (старые серии удалять не надо);
3. Скачать новый торрент и запустить его у себя в клиенте вместо старого, при этом указать клиенту путь в старую папку куда и должно происходить скачивание новых серий. Ваш клиент при этом должен произвести хеширование (проверку) старой папки и будет докачивать только те серии, которых у вас ещё нет. Старые серии при этом не удаляются, а продолжают раздаваться! Eсли вы уже удалили старые серии, то предотвратить повторную закачку старых серий можно, отжав галочку в соответствующих местах при запуске нового торрента.
Скриншоты:


Все одноименные релизы в Клубе

Смотреть Online

http://moonwalk.cc/serial/ebd1cc50d2546bb16c5bfe4fc24d0fc5/iframe
Детали торрента:
Название:Мистер Робот / Mr. Robot (2016) HDTVRip [H.264/720p-LQ] (сезон 2, серии 1-12 из 12) Jaskier
Дата добавления:23 Сен 2016 01:19:27
Размер:9,08 GB
Раздают:
Качают:0
Форум:Зарубежные сериалы

All rights reserved © 2015-2018