TORRENTS43.COM

Скачать Levin Minnemann Rudess - From the Law Offices Of (2016) [FLAC|Lossless|tracks + .cue] <Progressive Rock, Instrumental, Jazz-Rock>


Levin Minnemann Rudess - From the Law Offices Of (2016)
Год: 2016
Жанр: Progressive Rock, Instrumental, Jazz-Rock
Издание: Lazy Bones Recordings
Продолжительность: o1:09:45

Кодек: FLAC
Битрейт: Lossless
Тип рипа: tracks + .cue

Треклист:
01. Back to the Machine [00:04:18]
02. Ready, Set, Sue [00:03:31]
03. Riff Splat [00:05:34]
04. What is the Meaning? [00:04:21]
05. Marseille [00:04:18]
06. Good Day Hearsay [00:03:31]
07. Witness [00:05:03]
08. Balloon [00:03:00]
09. When the Gavel Falls [00:04:09]
10. The Verdict [00:04:30]
11. Free Radicals [00:01:34]
12. Magistrate [00:03:39]
13. Shiloh's Cat [00:04:33]
14. The Tort [00:05:10]
15. Testimony [00:03:20]
16. Habeas Porpoise [00:04:01]
17. The Tort (Ver. 2xb-74) [00:05:03]

Отчёт EAC:

Код:

X Lossless Decoder version 20151214 (149.1)

XLD extraction logfile from 2016-07-18 12:35:05 -0400

Levin Minnemann Rudess / From the Law Offices of Levin Minnemann Rudess

Used drive : HL-DT-ST DVDRW  GSA-S10N (revision BP10)
Media type : Pressed CD

Ripper mode             : XLD Secure Ripper
Disable audio cache     : OK for the drive with a cache less than 1375KiB
Make use of C2 pointers : NO
Read offset correction  : 667
Max retry count         : 20
Gap status              : Analyzed, Appended (except HTOA)

TOC of the extracted CD
     Track |   Start  |  Length  | Start sector | End sector
    ---------------------------------------------------------
        1  | 00:00:00 | 04:18:60 |         0    |    19409
        2  | 04:18:60 | 03:31:60 |     19410    |    35294
        3  | 07:50:45 | 05:34:26 |     35295    |    60370
        4  | 13:24:71 | 04:21:06 |     60371    |    79951
        5  | 17:46:02 | 04:18:61 |     79952    |    99362
        6  | 22:04:63 | 03:31:22 |     99363    |   115209
        7  | 25:36:10 | 05:03:50 |    115210    |   137984
        8  | 30:39:60 | 03:00:34 |    137985    |   151518
        9  | 33:40:19 | 04:09:07 |    151519    |   170200
       10  | 37:49:26 | 04:30:14 |    170201    |   190464
       11  | 42:19:40 | 01:34:53 |    190465    |   197567
       12  | 43:54:18 | 03:39:57 |    197568    |   214049
       13  | 47:34:00 | 04:33:64 |    214050    |   234588
       14  | 52:07:64 | 05:10:39 |    234589    |   257877
       15  | 57:18:28 | 03:20:61 |    257878    |   272938
       16  | 60:39:14 | 04:01:50 |    272939    |   291063
       17  | 64:40:64 | 05:03:66 |    291064    |   313854

AccurateRip Summary
    Disc not found in AccurateRip DB.

All Tracks
    Album gain               : -7.24 dB
    Peak                     : 0.959961
    Statistics
        Read error                           : 0
        Jitter error (maybe fixed)           : 0
        Retry sector count                   : 0
        Damaged sector count                 : 0

Track 01
    Filename : /XLD_Rips/Levin Minnemann Rudess - From the Law Offices of Levin Minnemann Rudess (2016) [FLAC]/01 - Back to the Machine.flac
    Pre-gap length : 00:02:00

    Track gain               : -7.74 dB
    Peak                     : 0.959961
    CRC32 hash (test run)    : 71F25A37
    CRC32 hash               : 71F25A37
    CRC32 hash (skip zero)   : 4FBAA377
    AccurateRip v1 signature : EAB21E50
    AccurateRip v2 signature : 79674A03
        ->Track not present in AccurateRip database.
    Statistics
        Read error                           : 0
        Jitter error (maybe fixed)           : 0
        Retry sector count                   : 0
        Damaged sector count                 : 0

Track 02
    Filename : /XLD_Rips/Levin Minnemann Rudess - From the Law Offices of Levin Minnemann Rudess (2016) [FLAC]/02 - Ready, Set, Sue.flac
    Pre-gap length : 00:02:00

    Track gain               : -6.50 dB
    Peak                     : 0.930481
    CRC32 hash (test run)    : D886E563
    CRC32 hash               : D886E563
    CRC32 hash (skip zero)   : C4A8220F
    AccurateRip v1 signature : E363DAFC
    AccurateRip v2 signature : D39476B0
        ->Track not present in AccurateRip database.
    Statistics
        Read error                           : 0
        Jitter error (maybe fixed)           : 0
        Retry sector count                   : 0
        Damaged sector count                 : 0

Track 03
    Filename : /XLD_Rips/Levin Minnemann Rudess - From the Law Offices of Levin Minnemann Rudess (2016) [FLAC]/03 - Riff Splat.flac
    Pre-gap length : 00:01:00

    Track gain               : -8.22 dB
    Peak                     : 0.943085
    CRC32 hash (test run)    : 37EC9857
    CRC32 hash               : 37EC9857
    CRC32 hash (skip zero)   : EEEC2BEF
    AccurateRip v1 signature : 66685E12
    AccurateRip v2 signature : FEC7D3A5
        ->Track not present in AccurateRip database.
    Statistics
        Read error                           : 0
        Jitter error (maybe fixed)           : 0
        Retry sector count                   : 0
        Damaged sector count                 : 0

Track 04
    Filename : /XLD_Rips/Levin Minnemann Rudess - From the Law Offices of Levin Minnemann Rudess (2016) [FLAC]/04 - What is the Meaning?.flac
    Pre-gap length : 00:02:00

    Track gain               : -8.12 dB
    Peak                     : 0.943085
    CRC32 hash (test run)    : D37EF40A
    CRC32 hash               : D37EF40A
    CRC32 hash (skip zero)   : 2360CA10
    AccurateRip v1 signature : CBB1E408
    AccurateRip v2 signature : A6AD35AC
        ->Track not present in AccurateRip database.
    Statistics
        Read error                           : 0
        Jitter error (maybe fixed)           : 0
        Retry sector count                   : 0
        Damaged sector count                 : 0

Track 05
    Filename : /XLD_Rips/Levin Minnemann Rudess - From the Law Offices of Levin Minnemann Rudess (2016) [FLAC]/05 - Marseille.flac
    Pre-gap length : 00:02:00

    Track gain               : -7.42 dB
    Peak                     : 0.936646
    CRC32 hash (test run)    : FA88209C
    CRC32 hash               : FA88209C
    CRC32 hash (skip zero)   : F2B96F92
    AccurateRip v1 signature : 41EF9292
    AccurateRip v2 signature : 6BA60BA3
        ->Track not present in AccurateRip database.
    Statistics
        Read error                           : 0
        Jitter error (maybe fixed)           : 0
        Retry sector count                   : 0
        Damaged sector count                 : 0

Track 06
    Filename : /XLD_Rips/Levin Minnemann Rudess - From the Law Offices of Levin Minnemann Rudess (2016) [FLAC]/06 - Good Day Hearsay.flac
    Pre-gap length : 00:02:00

    Track gain               : -6.90 dB
    Peak                     : 0.946625
    CRC32 hash (test run)    : E87795D5
    CRC32 hash               : E87795D5
    CRC32 hash (skip zero)   : 521E1CD4
    AccurateRip v1 signature : 7EBDBD86
    AccurateRip v2 signature : C8CA580E
        ->Track not present in AccurateRip database.
    Statistics
        Read error                           : 0
        Jitter error (maybe fixed)           : 0
        Retry sector count                   : 0
        Damaged sector count                 : 0

Track 07
    Filename : /XLD_Rips/Levin Minnemann Rudess - From the Law Offices of Levin Minnemann Rudess (2016) [FLAC]/07 - Witness.flac
    Pre-gap length : 00:02:00

    Track gain               : -7.59 dB
    Peak                     : 0.924469
    CRC32 hash (test run)    : 9FEF5123
    CRC32 hash               : 9FEF5123
    CRC32 hash (skip zero)   : E255E52E
    AccurateRip v1 signature : 7D4EDB64
    AccurateRip v2 signature : 4B9846D9
        ->Track not present in AccurateRip database.
    Statistics
        Read error                           : 0
        Jitter error (maybe fixed)           : 0
        Retry sector count                   : 0
        Damaged sector count                 : 0

Track 08
    Filename : /XLD_Rips/Levin Minnemann Rudess - From the Law Offices of Levin Minnemann Rudess (2016) [FLAC]/08 - Balloon.flac
    Pre-gap length : 00:01:20

    Track gain               : -4.62 dB
    Peak                     : 0.917053
    CRC32 hash (test run)    : 110F6BBD
    CRC32 hash               : 110F6BBD
    CRC32 hash (skip zero)   : DCDB1D99
    AccurateRip v1 signature : 166D7C37
    AccurateRip v2 signature : 3C01653F
        ->Track not present in AccurateRip database.
    Statistics
        Read error                           : 0
        Jitter error (maybe fixed)           : 0
        Retry sector count                   : 0
        Damaged sector count                 : 0

Track 09
    Filename : /XLD_Rips/Levin Minnemann Rudess - From the Law Offices of Levin Minnemann Rudess (2016) [FLAC]/09 - When the Gavel Falls.flac
    Pre-gap length : 00:02:00

    Track gain               : -6.93 dB
    Peak                     : 0.917633
    CRC32 hash (test run)    : 4A722124
    CRC32 hash               : 4A722124
    CRC32 hash (skip zero)   : 93042A53
    AccurateRip v1 signature : 1FA813F0
    AccurateRip v2 signature : BF031D97
        ->Track not present in AccurateRip database.
    Statistics
        Read error                           : 0
        Jitter error (maybe fixed)           : 0
        Retry sector count                   : 0
        Damaged sector count                 : 0

Track 10
    Filename : /XLD_Rips/Levin Minnemann Rudess - From the Law Offices of Levin Minnemann Rudess (2016) [FLAC]/10 - The Verdict.flac
    Pre-gap length : 00:01:30

    Track gain               : -6.00 dB
    Peak                     : 0.927185
    CRC32 hash (test run)    : D833FD8F
    CRC32 hash               : D833FD8F
    CRC32 hash (skip zero)   : FB4EDDE3
    AccurateRip v1 signature : D9A257FC
    AccurateRip v2 signature : 6C742C69
        ->Track not present in AccurateRip database.
    Statistics
        Read error                           : 0
        Jitter error (maybe fixed)           : 0
        Retry sector count                   : 0
        Damaged sector count                 : 0

Track 11
    Filename : /XLD_Rips/Levin Minnemann Rudess - From the Law Offices of Levin Minnemann Rudess (2016) [FLAC]/11 - Free Radicals.flac
    Pre-gap length : 00:02:00

    Track gain               : -5.03 dB
    Peak                     : 0.919617
    CRC32 hash (test run)    : 63201923
    CRC32 hash               : 63201923
    CRC32 hash (skip zero)   : AA6D3CFA
    AccurateRip v1 signature : E8B41598
    AccurateRip v2 signature : F3ACFF06
        ->Track not present in AccurateRip database.
    Statistics
        Read error                           : 0
        Jitter error (maybe fixed)           : 0
        Retry sector count                   : 0
        Damaged sector count                 : 0

Track 12
    Filename : /XLD_Rips/Levin Minnemann Rudess - From the Law Offices of Levin Minnemann Rudess (2016) [FLAC]/12 - Magistrate.flac

    Track gain               : -7.55 dB
    Peak                     : 0.932007
    CRC32 hash (test run)    : C9D190E3
    CRC32 hash               : C9D190E3
    CRC32 hash (skip zero)   : 9E7A70DB
    AccurateRip v1 signature : DE10A1A5
    AccurateRip v2 signature : 61180CF2
        ->Track not present in AccurateRip database.
    Statistics
        Read error                           : 0
        Jitter error (maybe fixed)           : 0
        Retry sector count                   : 0
        Damaged sector count                 : 0

Track 13
    Filename : /XLD_Rips/Levin Minnemann Rudess - From the Law Offices of Levin Minnemann Rudess (2016) [FLAC]/13 - Shiloh's Cat.flac
    Pre-gap length : 00:01:00

    Track gain               : -5.20 dB
    Peak                     : 0.917786
    CRC32 hash (test run)    : 8BA5AF14
    CRC32 hash               : 8BA5AF14
    CRC32 hash (skip zero)   : 7B8AC80A
    AccurateRip v1 signature : 36389883
    AccurateRip v2 signature : 856B71B7
        ->Track not present in AccurateRip database.
    Statistics
        Read error                           : 0
        Jitter error (maybe fixed)           : 0
        Retry sector count                   : 0
        Damaged sector count                 : 0

Track 14
    Filename : /XLD_Rips/Levin Minnemann Rudess - From the Law Offices of Levin Minnemann Rudess (2016) [FLAC]/14 - The Tort.flac
    Pre-gap length : 00:01:40

    Track gain               : -6.78 dB
    Peak                     : 0.949799
    CRC32 hash (test run)    : 41A160BF
    CRC32 hash               : 41A160BF
    CRC32 hash (skip zero)   : 04B9AF20
    AccurateRip v1 signature : 31E06ED3
    AccurateRip v2 signature : 02F8CB93
        ->Track not present in AccurateRip database.
    Statistics
        Read error                           : 0
        Jitter error (maybe fixed)           : 0
        Retry sector count                   : 0
        Damaged sector count                 : 0

Track 15
    Filename : /XLD_Rips/Levin Minnemann Rudess - From the Law Offices of Levin Minnemann Rudess (2016) [FLAC]/15 - Testimony.flac
    Pre-gap length : 00:02:00

    Track gain               : -2.38 dB
    Peak                     : 0.914978
    CRC32 hash (test run)    : CF343D60
    CRC32 hash               : CF343D60
    CRC32 hash (skip zero)   : 10678148
    AccurateRip v1 signature : 9D23AAC9
    AccurateRip v2 signature : 8AD33FF1
        ->Track not present in AccurateRip database.
    Statistics
        Read error                           : 0
        Jitter error (maybe fixed)           : 0
        Retry sector count                   : 0
        Damaged sector count                 : 0

Track 16
    Filename : /XLD_Rips/Levin Minnemann Rudess - From the Law Offices of Levin Minnemann Rudess (2016) [FLAC]/16 - Habeas Porpoise.flac
    Pre-gap length : 00:02:00

    Track gain               : -6.85 dB
    Peak                     : 0.920013
    CRC32 hash (test run)    : DC207BC4
    CRC32 hash               : DC207BC4
    CRC32 hash (skip zero)   : F88D57C2
    AccurateRip v1 signature : 8D50C92A
    AccurateRip v2 signature : D24FE51D
        ->Track not present in AccurateRip database.
    Statistics
        Read error                           : 0
        Jitter error (maybe fixed)           : 0
        Retry sector count                   : 0
        Damaged sector count                 : 0

Track 17
    Filename : /XLD_Rips/Levin Minnemann Rudess - From the Law Offices of Levin Minnemann Rudess (2016) [FLAC]/17 - The Tort (Ver. 2xb-74).flac
    Pre-gap length : 00:01:00

    Track gain               : -6.48 dB
    Peak                     : 0.919403
    CRC32 hash (test run)    : 65681C5D
    CRC32 hash               : 65681C5D
    CRC32 hash (skip zero)   : 8893DAD3
    AccurateRip v1 signature : B61314C6
    AccurateRip v2 signature : E10D70B6
        ->Track not present in AccurateRip database.
    Statistics
        Read error                           : 0
        Jitter error (maybe fixed)           : 0
        Retry sector count                   : 0
        Damaged sector count                 : 0

No errors occurred

End of status report

-----BEGIN XLD SIGNATURE-----
UJ60zJ8I5.r8eLiban4pJGrJP248nbFRrPL4Q1jY77lML6OKxZMFuLsin779p2xNPUXxEn2P_.HIk9RdBWxDBSXLUzRfjmHChbWLsVy
-----END XLD SIGNATURE-----

Cue Sheet (.cue):

Код:

TITLE "From the Law Offices of Levin Minnemann Rudess"
PERFORMER "Levin Minnemann Rudess"
REM GENRE "Progressive Rock"
REM DATE "2016"
REM DISCID E0105811
REM REPLAYGAIN_ALBUM_GAIN -7.24 dB
REM REPLAYGAIN_ALBUM_PEAK 0.959961
FILE "01 - Back to the Machine.flac" WAVE
  TRACK 01 AUDIO
    TITLE "Back to the Machine"
    REM REPLAYGAIN_TRACK_GAIN -7.74 dB
    REM REPLAYGAIN_TRACK_PEAK 0.959961
    INDEX 01 00:00:00
  TRACK 02 AUDIO
    TITLE "Ready, Set, Sue"
    REM REPLAYGAIN_TRACK_GAIN -6.50 dB
    REM REPLAYGAIN_TRACK_PEAK 0.930481
    INDEX 00 04:16:60
FILE "02 - Ready, Set, Sue.flac" WAVE
    INDEX 01 00:00:00
  TRACK 03 AUDIO
    TITLE "Riff Splat"
    REM REPLAYGAIN_TRACK_GAIN -8.22 dB
    REM REPLAYGAIN_TRACK_PEAK 0.943085
    INDEX 00 03:30:60
FILE "03 - Riff Splat.flac" WAVE
    INDEX 01 00:00:00
  TRACK 04 AUDIO
    TITLE "What is the Meaning?"
    REM REPLAYGAIN_TRACK_GAIN -8.12 dB
    REM REPLAYGAIN_TRACK_PEAK 0.943085
    INDEX 00 05:32:26
FILE "04 - What is the Meaning.flac" WAVE
    INDEX 01 00:00:00
  TRACK 05 AUDIO
    TITLE "Marseille"
    REM REPLAYGAIN_TRACK_GAIN -7.42 dB
    REM REPLAYGAIN_TRACK_PEAK 0.936646
    INDEX 00 04:19:06
FILE "05 - Marseille.flac" WAVE
    INDEX 01 00:00:00
  TRACK 06 AUDIO
    TITLE "Good Day Hearsay"
    REM REPLAYGAIN_TRACK_GAIN -6.90 dB
    REM REPLAYGAIN_TRACK_PEAK 0.946625
    INDEX 00 04:16:61
FILE "06 - Good Day Hearsay.flac" WAVE
    INDEX 01 00:00:00
  TRACK 07 AUDIO
    TITLE "Witness"
    REM REPLAYGAIN_TRACK_GAIN -7.59 dB
    REM REPLAYGAIN_TRACK_PEAK 0.924469
    INDEX 00 03:29:22
FILE "07 - Witness.flac" WAVE
    INDEX 01 00:00:00
  TRACK 08 AUDIO
    TITLE "Balloon"
    REM REPLAYGAIN_TRACK_GAIN -4.62 dB
    REM REPLAYGAIN_TRACK_PEAK 0.917053
    INDEX 00 05:02:30
FILE "08 - Balloon.flac" WAVE
    INDEX 01 00:00:00
  TRACK 09 AUDIO
    TITLE "When the Gavel Falls"
    REM REPLAYGAIN_TRACK_GAIN -6.93 dB
    REM REPLAYGAIN_TRACK_PEAK 0.917633
    INDEX 00 02:58:34
FILE "09 - When the Gavel Falls.flac" WAVE
    INDEX 01 00:00:00
  TRACK 10 AUDIO
    TITLE "The Verdict"
    REM REPLAYGAIN_TRACK_GAIN -6.00 dB
    REM REPLAYGAIN_TRACK_PEAK 0.927185
    INDEX 00 04:07:52
FILE "10 - The Verdict.flac" WAVE
    INDEX 01 00:00:00
  TRACK 11 AUDIO
    TITLE "Free Radicals"
    REM REPLAYGAIN_TRACK_GAIN -5.03 dB
    REM REPLAYGAIN_TRACK_PEAK 0.919617
    INDEX 00 04:28:14
FILE "11 - Free Radicals.flac" WAVE
    INDEX 01 00:00:00
FILE "12 - Magistrate.flac" WAVE
  TRACK 12 AUDIO
    TITLE "Magistrate"
    REM REPLAYGAIN_TRACK_GAIN -7.55 dB
    REM REPLAYGAIN_TRACK_PEAK 0.932007
    INDEX 01 00:00:00
  TRACK 13 AUDIO
    TITLE "Shiloh's Cat"
    REM REPLAYGAIN_TRACK_GAIN -5.20 dB
    REM REPLAYGAIN_TRACK_PEAK 0.917786
    INDEX 00 03:38:57
FILE "13 - Shiloh's Cat.flac" WAVE
    INDEX 01 00:00:00
  TRACK 14 AUDIO
    TITLE "The Tort"
    REM REPLAYGAIN_TRACK_GAIN -6.78 dB
    REM REPLAYGAIN_TRACK_PEAK 0.949799
    INDEX 00 04:32:24
FILE "14 - The Tort.flac" WAVE
    INDEX 01 00:00:00
  TRACK 15 AUDIO
    TITLE "Testimony"
    REM REPLAYGAIN_TRACK_GAIN -2.38 dB
    REM REPLAYGAIN_TRACK_PEAK 0.914978
    INDEX 00 05:08:39
FILE "15 - Testimony.flac" WAVE
    INDEX 01 00:00:00
  TRACK 16 AUDIO
    TITLE "Habeas Porpoise"
    REM REPLAYGAIN_TRACK_GAIN -6.85 dB
    REM REPLAYGAIN_TRACK_PEAK 0.920013
    INDEX 00 03:18:61
FILE "16 - Habeas Porpoise.flac" WAVE
    INDEX 01 00:00:00
  TRACK 17 AUDIO
    TITLE "The Tort (Ver. 2xb-74)"
    REM REPLAYGAIN_TRACK_GAIN -6.48 dB
    REM REPLAYGAIN_TRACK_PEAK 0.919403
    INDEX 00 04:00:50
FILE "17 - The Tort (Ver. 2xb-74).flac" WAVE
    INDEX 01 00:00:00

Отчёт auCDtect Task manager:

Код:

-----------------------

DON'T MODIFY THIS FILE

-----------------------

PERFORMER: auCDtect Task Manager, ver. 1.6.0 RC1 build 1.6.0.1
Copyright (c) 2008-2010 y-soft. All rights reserved
http://y-soft.org

ANALYZER: auCDtect: CD records authenticity detector, version 0.8.2
Copyright (c) 2004 Oleg Berngardt. All rights reserved.
Copyright (c) 2004 Alexander Djourik. All rights reserved.

FILE: 17 - The Tort (Ver. 2xb-74).flac
  Size: 34023184 Hash: 0F37EB0C4BA736B3F71A06123942C4CB Accuracy: -m0
  Conclusion: CDDA 100%
  Signature: CA7B091EF02044CE0DD71EEA597A01EF93E6F8B6
FILE: 16 - Habeas Porpoise.flac
  Size: 28732241 Hash: C0096E9B5A878C741492734024716FCF Accuracy: -m0
  Conclusion: CDDA 99%
  Signature: C3066E46BED6B891A299F1B94AFABCA0FDF8EADF
FILE: 15 - Testimony.flac
  Size: 20175169 Hash: AFF8DBAAA5B2723E45463E775D42FC3B Accuracy: -m0
  Conclusion: CDDA 100%
  Signature: 9CE4D6EABB1382F89DD9DB97289DA5F00A4B7A68
FILE: 14 - The Tort.flac
  Size: 35962343 Hash: 2B66E41C77AFB815426CD995D39A0FA1 Accuracy: -m0
  Conclusion: CDDA 100%
  Signature: 87D24A29CEBAF70FD4AF726E434987E15CEB5913
FILE: 13 - Shiloh's Cat.flac
  Size: 28560176 Hash: 12943E25E9ED6370B4061FCCA18AE829 Accuracy: -m0
  Conclusion: CDDA 100%
  Signature: 6B9F175D9DA690821DFB28499F07FAF20E0589AD
FILE: 12 - Magistrate.flac
  Size: 25256944 Hash: 7F7FD6DBE639FE41B7A186745D559F9A Accuracy: -m0
  Conclusion: CDDA 100%
  Signature: 3460CDA96B0D0545537D0DBDFE166F773645F0BA
FILE: 11 - Free Radicals.flac
  Size: 9743847 Hash: D6168A5CE62BF7FAE3BDAE94E9AFF981 Accuracy: -m0
  Conclusion: CDDA 100%
  Signature: F53CB42E6552E49771714BC05844548488ED71E9
FILE: 10 - The Verdict.flac
  Size: 31107238 Hash: 08672672880DBC0831B2E09E14299FAB Accuracy: -m0
  Conclusion: CDDA 100%
  Signature: 096E8C0CA8F1AFF618C64DC0A5BE20AD50C122E1
FILE: 09 - When the Gavel Falls.flac
  Size: 30048828 Hash: CFD0E5396F61C7D1248BF0B5F02FF82B Accuracy: -m0
  Conclusion: CDDA 100%
  Signature: 53DF9A4B587AE3DF502D8041E5B299DC871412CE
FILE: 08 - Balloon.flac
  Size: 19373513 Hash: E6AFF2CAA4273CEA3A9672E84F34441B Accuracy: -m0
  Conclusion: CDDA 100%
  Signature: EC47D4D9C10411AB4D82D06AA636B7916146E915
FILE: 07 - Witness.flac
  Size: 36379886 Hash: 492F426B43D41E446CB0DE1252C327A5 Accuracy: -m0
  Conclusion: CDDA 100%
  Signature: 85AC0364348C4949F1CA802B78E1155E18440199
FILE: 06 - Good Day Hearsay.flac
  Size: 26001150 Hash: 714C4F9DA16FE5078BE8E80DED5226CE Accuracy: -m0
  Conclusion: CDDA 100%
  Signature: 82ACB8CFCDC7E6966A53A739963A745EE498EE43
FILE: 05 - Marseille.flac
  Size: 30842897 Hash: AC53AF54927FCF4CBA03E83549A688E6 Accuracy: -m0
  Conclusion: CDDA 100%
  Signature: E9EB5B21FCB1E953488A5DFF5B69849B91B413E6
FILE: 04 - What is the Meaning.flac
  Size: 31474996 Hash: DC650FC525DAD628AD886CFA97FE6378 Accuracy: -m0
  Conclusion: CDDA 100%
  Signature: 313F85E1196E67C32C2E11D2109B533584CCCBCE
FILE: 03 - Riff Splat.flac
  Size: 38673806 Hash: EC10EB74D65EB72C8006C9A175466632 Accuracy: -m0
  Conclusion: CDDA 100%
  Signature: A7683EA15CA402C4880C6A4CB5C86EE57951279C
FILE: 02 - Ready, Set, Sue.flac
  Size: 24827146 Hash: EB68A382FFBE3BAE0DA945413807EA5C Accuracy: -m0
  Conclusion: CDDA 100%
  Signature: 1003E08D293ED86A46E5C4406B2AA01A0E329E76
FILE: 01 - Back to the Machine.flac
  Size: 31643800 Hash: 9CEBE798B3E48389F5A49B3E474F49ED Accuracy: -m0
  Conclusion: CDDA 100%
  Signature: A41584B7AF77ECD4B81ACEED4A00E9EDFC62800F



Поглощение/вытеснение
Только с согласия релизера

Pashketan
Детали торрента:
Название:Levin Minnemann Rudess - From the Law Offices Of (2016) [FLAC|Lossless|tracks + .cue] <Progressive Rock, Instrumental, Jazz-Rock>
Дата добавления:30 Июл 2016 07:03:37
Размер:461 MB
Раздают:1
Качают:0
Форум:Instrumental (Lossless)

All rights reserved © 2015-2018