TORRENTS43.COM

Скачать Krakota - Strange System (2016) [MP3|320 Kbps] <Drum & Bass>


Krakota - Strange System (2016)


Год выпуска: 2016-07-29
Жанр: Drum & Bass
Лейбл: Hospital Records
Каталог №: NHS 293DD
Продолжительность: 01:09:16

Кодек: MP3
Битрейт: 320 кб/с
Тип битрейта: CBR

Hospital Records


Треклист:

01. North Winds
02. Colour the Past (feat. Karina Ramage)
03. Samphire
04. Xylo
05. Turn of Fate
06. Powder Coated (feat. London Elektricity)
07. In the Area (feat. Lifford)
08. Half Life (Beatport Exclusive)
09. Elastic
10. Carmine
11. Meridian
12. Weirdos & Creepers (feat. Illaman)
13. End of the Line (feat. Benji Clements)
14. Sea Air

Спектрограмма:




MediaInfo:

Код:
Общее
Полное имя                               : D:\Music\Electronic\MP3\Krakota\Strange System (2016)\14. Krakota - Sea Air.mp3
Формат                                   : MPEG Audio
Размер файла                             : 14,3 Мбайт
Продолжительность                        : 6 м. 7 с.
Режим общего битрейта                    : Постоянный
Общий поток                              : 320 Кбит/сек
Альбом                                   : Strange System
Трек                                     : Sea Air
Трек/Положение                           : 14
Исполнитель                              : Krakota
Жанр                                     : Drum & Bass
Дата записи                              : 2016
Библиотека кодирования                   : LAME3.99r
Обложка                                  : Yes
Тип обложки                              : Cover (front)
MIME-тип обложки                         : image/jpg

Аудио
Формат                                   : MPEG Audio
Версия формата                           : Version 1
Профиль формата                          : Layer 3
Режим                                    : Joint stereo
Продолжительность                        : 6 м. 7 с.
Вид битрейта                             : Постоянный
Битрейт                                  : 320 Кбит/сек
Каналы                                   : 2 канала
Частота                                  : 44,1 КГц
Метод сжатия                             : С потерями
Размер потока                            : 14,0 Мбайт (98%)
Библиотека кодирования                   : LAME3.99r
Настройки программы                      : -m j -V 4 -q 2 -lowpass 20.5

Общее
Полное имя                               : D:\Music\Electronic\MP3\Krakota\Strange System (2016)\01. Krakota - North Winds.mp3
Формат                                   : MPEG Audio
Размер файла                             : 12,3 Мбайт
Продолжительность                        : 5 м. 13 с.
Режим общего битрейта                    : Постоянный
Общий поток                              : 320 Кбит/сек
Альбом                                   : Strange System
Трек                                     : North Winds
Трек/Положение                           : 01
Исполнитель                              : Krakota
Жанр                                     : Drum & Bass
Дата записи                              : 2016
Библиотека кодирования                   : LAME3.99r
Обложка                                  : Yes
Тип обложки                              : Cover (front)
MIME-тип обложки                         : image/jpg

Аудио
Формат                                   : MPEG Audio
Версия формата                           : Version 1
Профиль формата                          : Layer 3
Режим                                    : Joint stereo
Продолжительность                        : 5 м. 13 с.
Вид битрейта                             : Постоянный
Битрейт                                  : 320 Кбит/сек
Каналы                                   : 2 канала
Частота                                  : 44,1 КГц
Метод сжатия                             : С потерями
Размер потока                            : 12,0 Мбайт (98%)
Библиотека кодирования                   : LAME3.99r
Настройки программы                      : -m j -V 4 -q 2 -lowpass 20.5

Общее
Полное имя                               : D:\Music\Electronic\MP3\Krakota\Strange System (2016)\02. Krakota - Colour the Past (feat. Karina Ramage).mp3
Формат                                   : MPEG Audio
Размер файла                             : 11,9 Мбайт
Продолжительность                        : 5 м. 4 с.
Режим общего битрейта                    : Постоянный
Общий поток                              : 320 Кбит/сек
Альбом                                   : Strange System
Трек                                     : Colour the Past (feat. Karina Ramage)
Трек/Положение                           : 02
Исполнитель                              : Krakota
Жанр                                     : Drum & Bass
Дата записи                              : 2016
Библиотека кодирования                   : LAME3.99r
Обложка                                  : Yes
Тип обложки                              : Cover (front)
MIME-тип обложки                         : image/jpg

Аудио
Формат                                   : MPEG Audio
Версия формата                           : Version 1
Профиль формата                          : Layer 3
Режим                                    : Joint stereo
Продолжительность                        : 5 м. 5 с.
Вид битрейта                             : Постоянный
Битрейт                                  : 320 Кбит/сек
Каналы                                   : 2 канала
Частота                                  : 44,1 КГц
Метод сжатия                             : С потерями
Размер потока                            : 11,6 Мбайт (98%)
Библиотека кодирования                   : LAME3.99r
Настройки программы                      : -m j -V 4 -q 2 -lowpass 20.5

Общее
Полное имя                               : D:\Music\Electronic\MP3\Krakota\Strange System (2016)\03. Krakota - Samphire.mp3
Формат                                   : MPEG Audio
Размер файла                             : 12,5 Мбайт
Продолжительность                        : 5 м. 19 с.
Режим общего битрейта                    : Постоянный
Общий поток                              : 320 Кбит/сек
Альбом                                   : Strange System
Трек                                     : Samphire
Трек/Положение                           : 03
Исполнитель                              : Krakota
Жанр                                     : Drum & Bass
Дата записи                              : 2016
Библиотека кодирования                   : LAME3.99r
Обложка                                  : Yes
Тип обложки                              : Cover (front)
MIME-тип обложки                         : image/jpg

Аудио
Формат                                   : MPEG Audio
Версия формата                           : Version 1
Профиль формата                          : Layer 3
Режим                                    : Joint stereo
Продолжительность                        : 5 м. 19 с.
Вид битрейта                             : Постоянный
Битрейт                                  : 320 Кбит/сек
Каналы                                   : 2 канала
Частота                                  : 44,1 КГц
Метод сжатия                             : С потерями
Размер потока                            : 12,2 Мбайт (98%)
Библиотека кодирования                   : LAME3.99r
Настройки программы                      : -m j -V 4 -q 2 -lowpass 20.5

Общее
Полное имя                               : D:\Music\Electronic\MP3\Krakota\Strange System (2016)\04. Krakota - Xylo.mp3
Формат                                   : MPEG Audio
Размер файла                             : 15,3 Мбайт
Продолжительность                        : 6 м. 32 с.
Режим общего битрейта                    : Постоянный
Общий поток                              : 320 Кбит/сек
Альбом                                   : Strange System
Трек                                     : Xylo
Трек/Положение                           : 04
Исполнитель                              : Krakota
Жанр                                     : Drum & Bass
Дата записи                              : 2016
Библиотека кодирования                   : LAME3.99r
Обложка                                  : Yes
Тип обложки                              : Cover (front)
MIME-тип обложки                         : image/jpg

Аудио
Формат                                   : MPEG Audio
Версия формата                           : Version 1
Профиль формата                          : Layer 3
Режим                                    : Joint stereo
Продолжительность                        : 6 м. 32 с.
Вид битрейта                             : Постоянный
Битрейт                                  : 320 Кбит/сек
Каналы                                   : 2 канала
Частота                                  : 44,1 КГц
Метод сжатия                             : С потерями
Размер потока                            : 15,0 Мбайт (98%)
Библиотека кодирования                   : LAME3.99r
Настройки программы                      : -m j -V 4 -q 2 -lowpass 20.5

Общее
Полное имя                               : D:\Music\Electronic\MP3\Krakota\Strange System (2016)\05. Krakota - Turn of Fate.mp3
Формат                                   : MPEG Audio
Размер файла                             : 10,4 Мбайт
Продолжительность                        : 4 м. 25 с.
Режим общего битрейта                    : Постоянный
Общий поток                              : 320 Кбит/сек
Альбом                                   : Strange System
Трек                                     : Turn of Fate
Трек/Положение                           : 05
Исполнитель                              : Krakota
Жанр                                     : Drum & Bass
Дата записи                              : 2016
Библиотека кодирования                   : LAME3.99r
Обложка                                  : Yes
Тип обложки                              : Cover (front)
MIME-тип обложки                         : image/jpg

Аудио
Формат                                   : MPEG Audio
Версия формата                           : Version 1
Профиль формата                          : Layer 3
Режим                                    : Joint stereo
Продолжительность                        : 4 м. 26 с.
Вид битрейта                             : Постоянный
Битрейт                                  : 320 Кбит/сек
Каналы                                   : 2 канала
Частота                                  : 44,1 КГц
Метод сжатия                             : С потерями
Размер потока                            : 10,1 Мбайт (97%)
Библиотека кодирования                   : LAME3.99r
Настройки программы                      : -m j -V 4 -q 2 -lowpass 20.5

Общее
Полное имя                               : D:\Music\Electronic\MP3\Krakota\Strange System (2016)\06. Krakota - Powder Coated (feat. London Elektricity).mp3
Формат                                   : MPEG Audio
Размер файла                             : 12,7 Мбайт
Продолжительность                        : 5 м. 25 с.
Режим общего битрейта                    : Постоянный
Общий поток                              : 320 Кбит/сек
Альбом                                   : Strange System
Трек                                     : Powder Coated (feat. London Elektricity)
Трек/Положение                           : 06
Исполнитель                              : Krakota
Жанр                                     : Drum & Bass
Дата записи                              : 2016
Библиотека кодирования                   : LAME3.99r
Обложка                                  : Yes
Тип обложки                              : Cover (front)
MIME-тип обложки                         : image/jpg

Аудио
Формат                                   : MPEG Audio
Версия формата                           : Version 1
Профиль формата                          : Layer 3
Режим                                    : Joint stereo
Продолжительность                        : 5 м. 25 с.
Вид битрейта                             : Постоянный
Битрейт                                  : 320 Кбит/сек
Каналы                                   : 2 канала
Частота                                  : 44,1 КГц
Метод сжатия                             : С потерями
Размер потока                            : 12,4 Мбайт (98%)
Библиотека кодирования                   : LAME3.99r
Настройки программы                      : -m j -V 4 -q 2 -lowpass 20.5

Общее
Полное имя                               : D:\Music\Electronic\MP3\Krakota\Strange System (2016)\07. Krakota - In the Area (feat. Lifford).mp3
Формат                                   : MPEG Audio
Размер файла                             : 11,7 Мбайт
Продолжительность                        : 4 м. 57 с.
Режим общего битрейта                    : Постоянный
Общий поток                              : 320 Кбит/сек
Альбом                                   : Strange System
Трек                                     : In the Area (feat. Lifford)
Трек/Положение                           : 07
Исполнитель                              : Krakota
Жанр                                     : Drum & Bass
Дата записи                              : 2016
Библиотека кодирования                   : LAME3.99r
Обложка                                  : Yes
Тип обложки                              : Cover (front)
MIME-тип обложки                         : image/jpg

Аудио
Формат                                   : MPEG Audio
Версия формата                           : Version 1
Профиль формата                          : Layer 3
Режим                                    : Joint stereo
Продолжительность                        : 4 м. 58 с.
Вид битрейта                             : Постоянный
Битрейт                                  : 320 Кбит/сек
Каналы                                   : 2 канала
Частота                                  : 44,1 КГц
Метод сжатия                             : С потерями
Размер потока                            : 11,4 Мбайт (97%)
Библиотека кодирования                   : LAME3.99r
Настройки программы                      : -m j -V 4 -q 2 -lowpass 20.5

Общее
Полное имя                               : D:\Music\Electronic\MP3\Krakota\Strange System (2016)\08. Krakota - Half Life (Beatport Exclusive).mp3
Формат                                   : MPEG Audio
Размер файла                             : 10,5 Мбайт
Продолжительность                        : 4 м. 26 с.
Режим общего битрейта                    : Постоянный
Общий поток                              : 320 Кбит/сек
Альбом                                   : Strange System
Трек                                     : Half Life (Beatport Exclusive)
Трек/Положение                           : 08
Исполнитель                              : Krakota
Жанр                                     : Drum & Bass
Дата записи                              : 2016
Библиотека кодирования                   : LAME3.99r
Обложка                                  : Yes
Тип обложки                              : Cover (front)
MIME-тип обложки                         : image/jpg

Аудио
Формат                                   : MPEG Audio
Версия формата                           : Version 1
Профиль формата                          : Layer 3
Режим                                    : Joint stereo
Продолжительность                        : 4 м. 27 с.
Вид битрейта                             : Постоянный
Битрейт                                  : 320 Кбит/сек
Каналы                                   : 2 канала
Частота                                  : 44,1 КГц
Метод сжатия                             : С потерями
Размер потока                            : 10,2 Мбайт (97%)
Библиотека кодирования                   : LAME3.99r
Настройки программы                      : -m j -V 4 -q 2 -lowpass 20.5

Общее
Полное имя                               : D:\Music\Electronic\MP3\Krakota\Strange System (2016)\09. Krakota - Elastic.mp3
Формат                                   : MPEG Audio
Размер файла                             : 9,07 Мбайт
Продолжительность                        : 3 м. 49 с.
Режим общего битрейта                    : Постоянный
Общий поток                              : 320 Кбит/сек
Альбом                                   : Strange System
Трек                                     : Elastic
Трек/Положение                           : 09
Исполнитель                              : Krakota
Жанр                                     : Drum & Bass
Дата записи                              : 2016
Библиотека кодирования                   : LAME3.99r
Обложка                                  : Yes
Тип обложки                              : Cover (front)
MIME-тип обложки                         : image/jpg

Аудио
Формат                                   : MPEG Audio
Версия формата                           : Version 1
Профиль формата                          : Layer 3
Режим                                    : Joint stereo
Расширение режима                        : MS Stereo
Продолжительность                        : 3 м. 50 с.
Вид битрейта                             : Постоянный
Битрейт                                  : 320 Кбит/сек
Каналы                                   : 2 канала
Частота                                  : 44,1 КГц
Метод сжатия                             : С потерями
Размер потока                            : 8,77 Мбайт (97%)
Библиотека кодирования                   : LAME3.99r
Настройки программы                      : -m j -V 4 -q 2 -lowpass 20.5

Общее
Полное имя                               : D:\Music\Electronic\MP3\Krakota\Strange System (2016)\10. Krakota - Carmine.mp3
Формат                                   : MPEG Audio
Размер файла                             : 10,9 Мбайт
Продолжительность                        : 4 м. 37 с.
Режим общего битрейта                    : Постоянный
Общий поток                              : 320 Кбит/сек
Альбом                                   : Strange System
Трек                                     : Carmine
Трек/Положение                           : 10
Исполнитель                              : Krakota
Жанр                                     : Drum & Bass
Дата записи                              : 2016
Библиотека кодирования                   : LAME3.99r
Обложка                                  : Yes
Тип обложки                              : Cover (front)
MIME-тип обложки                         : image/jpg

Аудио
Формат                                   : MPEG Audio
Версия формата                           : Version 1
Профиль формата                          : Layer 3
Режим                                    : Joint stereo
Продолжительность                        : 4 м. 37 с.
Вид битрейта                             : Постоянный
Битрейт                                  : 320 Кбит/сек
Каналы                                   : 2 канала
Частота                                  : 44,1 КГц
Метод сжатия                             : С потерями
Размер потока                            : 10,6 Мбайт (97%)
Библиотека кодирования                   : LAME3.99r
Настройки программы                      : -m j -V 4 -q 2 -lowpass 20.5

Общее
Полное имя                               : D:\Music\Electronic\MP3\Krakota\Strange System (2016)\11. Krakota - Meridian.mp3
Формат                                   : MPEG Audio
Размер файла                             : 10,6 Мбайт
Продолжительность                        : 4 м. 30 с.
Режим общего битрейта                    : Постоянный
Общий поток                              : 320 Кбит/сек
Альбом                                   : Strange System
Трек                                     : Meridian
Трек/Положение                           : 11
Исполнитель                              : Krakota
Жанр                                     : Drum & Bass
Дата записи                              : 2016
Библиотека кодирования                   : LAME3.99r
Обложка                                  : Yes
Тип обложки                              : Cover (front)
MIME-тип обложки                         : image/jpg

Аудио
Формат                                   : MPEG Audio
Версия формата                           : Version 1
Профиль формата                          : Layer 3
Режим                                    : Joint stereo
Продолжительность                        : 4 м. 31 с.
Вид битрейта                             : Постоянный
Битрейт                                  : 320 Кбит/сек
Каналы                                   : 2 канала
Частота                                  : 44,1 КГц
Метод сжатия                             : С потерями
Размер потока                            : 10,3 Мбайт (97%)
Библиотека кодирования                   : LAME3.99r
Настройки программы                      : -m j -V 4 -q 2 -lowpass 20.5

Общее
Полное имя                               : D:\Music\Electronic\MP3\Krakota\Strange System (2016)\12. Krakota - Weirdos & Creepers (feat. Illaman).mp3
Формат                                   : MPEG Audio
Размер файла                             : 9,98 Мбайт
Продолжительность                        : 4 м. 13 с.
Режим общего битрейта                    : Постоянный
Общий поток                              : 320 Кбит/сек
Альбом                                   : Strange System
Трек                                     : Weirdos & Creepers (feat. Illaman)
Трек/Положение                           : 12
Исполнитель                              : Krakota
Жанр                                     : Drum & Bass
Дата записи                              : 2016
Библиотека кодирования                   : LAME3.99r
Обложка                                  : Yes
Тип обложки                              : Cover (front)
MIME-тип обложки                         : image/jpg

Аудио
Формат                                   : MPEG Audio
Версия формата                           : Version 1
Профиль формата                          : Layer 3
Режим                                    : Joint stereo
Продолжительность                        : 4 м. 14 с.
Вид битрейта                             : Постоянный
Битрейт                                  : 320 Кбит/сек
Каналы                                   : 2 канала
Частота                                  : 44,1 КГц
Метод сжатия                             : С потерями
Размер потока                            : 9,69 Мбайт (97%)
Библиотека кодирования                   : LAME3.99r
Настройки программы                      : -m j -V 4 -q 2 -lowpass 20.5

Общее
Полное имя                               : D:\Music\Electronic\MP3\Krakota\Strange System (2016)\13. Krakota - End of the Line (feat. Benji Clements).mp3
Формат                                   : MPEG Audio
Размер файла                             : 10,6 Мбайт
Продолжительность                        : 4 м. 30 с.
Режим общего битрейта                    : Постоянный
Общий поток                              : 320 Кбит/сек
Альбом                                   : Strange System
Трек                                     : End of the Line (feat. Benji Clements)
Трек/Положение                           : 13
Исполнитель                              : Krakota
Жанр                                     : Drum & Bass
Дата записи                              : 2016
Библиотека кодирования                   : LAME3.99r
Обложка                                  : Yes
Тип обложки                              : Cover (front)
MIME-тип обложки                         : image/jpg

Аудио
Формат                                   : MPEG Audio
Версия формата                           : Version 1
Профиль формата                          : Layer 3
Режим                                    : Joint stereo
Продолжительность                        : 4 м. 30 с.
Вид битрейта                             : Постоянный
Битрейт                                  : 320 Кбит/сек
Каналы                                   : 2 канала
Частота                                  : 44,1 КГц
Метод сжатия                             : С потерями
Размер потока                            : 10,3 Мбайт (97%)
Библиотека кодирования                   : LAME3.99r
Настройки программы                      : -m j -V 4 -q 2 -lowpass 20.5
Детали торрента:
Название:Krakota - Strange System (2016) [MP3|320 Kbps] <Drum & Bass>
Дата добавления:30 Июл 2016 10:56:28
Размер:163 MB
Раздают:1
Качают:0
Форум:Drum'n'Bass, Jungle, Breaks, Breakbeat, Dubstep

All rights reserved © 2015-2018