TORRENTS43.COM

Скачать Пророки. Илия (2016) HDTVRip [720p-LQ]


Пророки. Илия (2016) HDTVRip [720p-LQ]
Телекомпания: Неофит
Жанр: Документальный

Описание:
Цикл фильмов о великих пророках Ветхого Завета. Фильм с участием ведущих российских и израильских библеистов и историков расскажет об Илье-пророке - единственном ветхозаветном герое, который стал любимым и почитаемым святым на Руси. Кем был пророк Илия? Почему его жизнь стала образцом для монахов на все времена? Как Илия боролся против насаждения язычества в Израиле с самим царем и царицей? Где проходило "соревнование" Илии с жрецами Ваала? Почему Иисуса Христа многие его современники принимали за Илию? И почему именно этого пророка в народе считают покровителем стихий?

Продолжительность: 00:26:30
Качество видео: HDTVRip

Видео: Xvid, 1280х720, ~2000 kb/s
Аудио: MP3, 2 ch, 192 kb/s

Mediainfo:

Код:

Format                      : AVI
Format/Info                 : Audio Video Interleave
File size                   : 417 MiB
Duration                    : 26mn 30s
Overall bit rate            : 2 197 Kbps
Writing application         : MEncoder SVN-r33883(20110719-gcc4.5.2)
Writing library             : MPlayer

Video
ID                          : 0
Format                      : MPEG-4 Visual
Format profile              : Advanced Simple@L5
Format settings, BVOP       : 2
Format settings, QPel       : No
Format settings, GMC        : No warppoints
Format settings, Matrix     : Default (H.263)
Codec ID                    : XVID
Codec ID/Hint               : XviD
Duration                    : 26mn 30s
Bit rate                    : 1 992 Kbps
Width                       : 1 280 pixels
Height                      : 720 pixels
Display aspect ratio        : 16:9
Frame rate                  : 24.870 fps
Color space                 : YUV
Chroma subsampling          : 4:2:0
Bit depth                   : 8 bits
Scan type                   : Progressive
Compression mode            : Lossy
Bits/(Pixel*Frame)          : 0.087
Stream size                 : 378 MiB (91%)
Writing library             : XviD 1.2.1 (UTC 2008-12-04)

Audio
ID                          : 1
Format                      : MPEG Audio
Format version              : Version 1
Format profile              : Layer 3
Mode                        : Joint stereo
Mode extension              : MS Stereo
Codec ID                    : 55
Codec ID/Hint               : MP3
Duration                    : 26mn 30s
Bit rate mode               : Constant
Bit rate                    : 192 Kbps
Channel(s)                  : 2 channels
Sampling rate               : 44.1 KHz
Compression mode            : Lossy
Delay relative to video     : 40ms
Stream size                 : 36.4 MiB (9%)
Alignment                   : Aligned on interleaves
Interleave, duration        : 26 ms (0.65 video frame)
Interleave, preload duratio : 522 ms
Writing library             : LAME3.98.4
Скриншоты:

Дополнительные скриншоты:



Все одноименные релизы в Клубе
Детали торрента:
Название:Пророки. Илия (2016) HDTVRip [720p-LQ]
Дата добавления:02 Авг 2016 16:57:22
Размер:417 MB
Раздают:5
Качают:0
Форум:Религии и культы

All rights reserved © 2015-2018