TORRENTS43.COM

Скачать Arcane - Automaton (2016) [FLAC|Lossless|WEB-DL|24Bit|tracks] <Berlin-School, Ambient, Experimental>


Arcane Automaton
Год: 2016
Жанр: Berlin-School, Ambient, Experimental
Издание: Self-released
Продолжительность: 00:52:06

Кодек: FLAC
Битрейт: Lossless|24Bit
Тип рипа: tracks

Треклист:


01. Automaton (04:39)
02. Brazen Head (03:39)
03. Predetermined Sequence (06:10)
04. Perew's Man (03:53)
05. Euphonia (06:10)
06. The Steam Man (07:28)
07. The Bird Trainer (Quintet for Buchla Music Easels) (04:54)
08. The Martinet Elephant (04:50)
09. The Turk (04:49)
10. Mechanical Beetle (05:34)

Dynamic Range Meter:

Код:

foobar2000 1.1 / Dynamic Range Meter 1.1.1
log date: 2016-08-04 18:27:36

--------------------------------------------------------------------------------
Analyzed: Arcane / Automaton
--------------------------------------------------------------------------------

DR         Peak         RMS     Duration Track
--------------------------------------------------------------------------------
DR8       -0.14 dB   -10.04 dB      4:39 ?-Automaton
DR11      -0.15 dB   -14.50 dB      3:39 ?-Brazen Head
DR8       -0.18 dB   -12.23 dB      6:10 ?-Predetermined Sequence
DR7       -0.15 dB    -8.67 dB      3:53 ?-Perew's Man
DR9       -0.18 dB   -10.34 dB      6:10 ?-Euphonia
DR8       -0.17 dB   -11.91 dB      7:28 ?-The Steam Man
DR10      -1.47 dB   -16.18 dB      4:54 ?-The Bird Trainer (Quintet for Buchla Music Easels)
DR9       -0.14 dB   -11.56 dB      4:50 ?-The Martinet Elephant
DR8       -0.14 dB   -10.68 dB      4:49 ?-The Turk
DR15      -0.99 dB   -21.62 dB      5:34 ?-Mechanical Beetle
--------------------------------------------------------------------------------

Number of tracks:  10
Official DR value: DR9

Samplerate:        44100 Hz
Channels:          2
Bits per sample:   24
Bitrate:           1362 kbps
Codec:             FLAC
================================================================================

Спектрограмма:



Discogs

Детали торрента:
Название:Arcane - Automaton (2016) [FLAC|Lossless|WEB-DL|24Bit|tracks] <Berlin-School, Ambient, Experimental>
Дата добавления:04 Авг 2016 18:43:58
Размер:513 MB
Раздают:2
Качают:0
Форум:WEB-DL-Audio

All rights reserved © 2015-2018