TORRENTS43.COM

Скачать Линкор «Шарнхорст» / Schlachtschiff Scharnhorst (1992) VHSRip (2 серии из 2)


Линкор «Шарнхорст» / Schlachtschiff Scharnhorst (1992) VHSRip (2 серии из 2)
Телекомпания: Германия, History Films
Жанр: Документальный, флот, война, история

Описание:
Scharnhorst («Шарнхорст») - головной корабль серии линейных кораблей типа Scharnhorst ВМС Германии, классифицируемый иногда как линейный крейсер из-за орудий главного калибра. Построен на военной верфи в Вильгельмсхафене и вошел в строй 7 января 1939 года. Принимал активное участие в операциях Кригсмарине в период Второй мировой войны, один из самых известных кораблей этого периода. Потоплен в бою с силами британского флота при попытке атаки арктического конвоя JW-55B у мыса Нордкап 26 декабря 1943 года. Погибло 1900 членов экипажа, и только 36 были спасены. Немногие из оставшихся в живых дают интервью о драматических часах последнего сражения и потопления корабля.

Релиз от: alf62

Большое СПАСИБО alinto, за предоставленный материал для релиза!

Продолжительность: 01:12:04 + 00:56:35
Качество видео: VHSRip

Перевод: Одноголосый закадровый, любительский

Видео: Xvid, 688x512, ~1999 Kbps
Аудио: AC3, 1 ch, 192 Kbps, CBR

Список выпусков/серий

1. Спущенный на воду… / Vom Stapellauf...
2. Трагедия у мыса Нордкап / Tragödie am Nordkap

Mediainfo:

Код:

Линкор.Шарнхорст.(1.серия.из.2).Спущенный. на.воду.1992.XviD.VHSRip.alf62.avi
Формат                                   : AVI
Формат/Информация                        : Audio Video Interleave
Размер файла                             : 1,23 Гбайт
Продолжительность                        : 1 ч. 12 м.
Общий поток                              : 2447 Кбит/сек
Программа кодирования                    : VirtualDubMod 1.5.10.3 | www.virtualdub-fr.org || (build 2550/release)
Библиотека кодирования                   : VirtualDubMod build 2550/release

Видео
Идентификатор                            : 0
Формат                                   : MPEG-4 Visual
Профиль формата                          : Advanced Simple@L5
Параметр BVOP формата                    : 1
Параметр QPel формата                    : Нет
Параметр GMC формата                     : Без точки перехода
Параметр матрицы формата                 : Default (MPEG)
Идентификатор кодека                     : XVID
Идентификатор кодека/Подсказка           : XviD
Продолжительность                        : 1 ч. 12 м.
Битрейт                                  : 2181 Кбит/сек
Ширина                                   : 688 пикселей
Высота                                   : 512 пикселей
Соотношение сторон                       : 4:3
Частота кадров                           : 25,000 кадров/сек
Цветовое пространство                    : YUV
Субдискретизация насыщенности            : 4:2:0
Битовая глубина                          : 8 бит
Тип развёртки                            : Прогрессивная
Метод сжатия                             : С потерями
Бит/(Пиксели*Кадры)                      : 0.248
Размер потока                            : 1,10 Гбайт (89%)
Библиотека кодирования                   : XviD 73

Аудио
Идентификатор                            : 1
Формат                                   : AC-3
Формат/Информация                        : Audio Coding 3
Расширение режима                        : CM (complete main)
Параметр Endianness формата              : Big
Идентификатор кодека                     : 2000
Продолжительность                        : 1 ч. 12 м.
Вид битрейта                             : Постоянный
Битрейт                                  : 256 Кбит/сек
Каналы                                   : 1 канал
Расположение каналов                     : Front: C
Частота                                  : 48,0 КГц
Битовая глубина                          : 16 бит
Метод сжатия                             : С потерями
Размер потока                            : 132 Мбайт (10%)
Выравнивание                             : Разделение по промежуткам
Продолжительность промежутка             : 40  мс. (1,00 видеокадр)
Время предзагрузки промежутка            : 500  мс.
Скриншоты:

Дополнительные скриншоты:





Детали торрента:
Название:Линкор «Шарнхорст» / Schlachtschiff Scharnhorst (1992) VHSRip (2 серии из 2)
Дата добавления:14 Авг 2016 02:34:08
Размер:2,03 GB
Раздают:
Качают:0
Форум:Флот

All rights reserved © 2015-2018