TORRENTS43.COM

Скачать Shirogane no Ishi: Argevollen | Аргеволлен: Серебряная мощь [2014, TV, 24] BDrip 1080p HEVC Hi10p raw



白銀の意思 アルジェヴォルン
Shirogane no Ishi: Argevollen
Аргеволлен: Серебряная мощь

Жанр: приключения, фантастика, меха
Тип: ТВ
Продолжительность: 24 серии по 25 мин.
Количество серий: 24 из 24
Выпуск: c 03.07.2014 по 18.12.2014
Cтудия:
Сценарий: Сато Тацуо / Satou Tatsuo / 佐藤竜雄
Режиссер: Оцуки Ацуси / Ootsuki Atsushi / 大槻敦史

Ссылки: World-Art, ANN, Ani-DB, MAL
Описание:
Две державы – королевство Арандас и Ингельмийская Федерация - борются за власть. Увы, стратеги королевства проглядели образование мощной ударной группировки, и полки федерации прорвали якобы несокрушимые пограничные укрепления. 8-й отдельный отряд тяжелых роботов Арандаса отходил к главным силам, но молодой и горячий пилот Токимунэ Сусуму нарушил приказ, ввязавшись в стычку. Как оказалось, спасенный им конвой вез на ходовые испытания экспериментального робота «Аргеволлен». Джейми, единственная выжившая из разработчиков, кое-как запустила системы, решив, что лучше прототип погибнет, но не достанется врагу. А дальше Токимунэ прыгнул в кабину и показал, кто в доме хозяин!

В итоге отряд получил мощный козырь, а Сусуму оказался единственным счастливчиком, способным пилотировать новую машину. Воротилы бизнеса были не против, ибо где еще обкатывать перспективный товар? Парню пришлось учиться на полную катушку – когда на кону стоит жизнь, многие вещи доходят очень быстро. На войне хватает крови, боли и предательства, но там же рождаются настоящая дружба, доверие и новые возможности. Без этого главному герою нельзя – ведь он должен раскрыть семейную тайну, ключами к которой владеют только люди в погонах. А еще в этом мире есть нейтральные курорты, где воины обеих сторон могут встретиться, отдохнуть душой и обсудить возникшие проблемы. Как говорится, война войной, а жить тоже надо!
Источник: © Hollow, World Art
Качество видео: BDrip
Видео: x265, Main 10@L5.0, 1920x1080, 23,976 кадра/сек, ~6802 кбит/сек
Аудио #1: FLAC, 2 канала, 48 кГц, 16 бит | Звук: Японский
Аудио #2: FLAC, 2 канала, 48 кГц, 16 бит | Звук: Японский (Аудиокомментарии)

Cубтитры1 (подключаемые): Русские от [Timecraft]

Скриншоты:

Ещё скриншоты

Эпизоды:

01. Encounter | Встреча
02. Awakening | Пробуждение
03. One Man Army | Один в поле воин
04. Return | Возвращение
05. Surprise Attack | Внезапное нападение
06. Run, Jamie! | Беги, Джейми, беги!
07. Bellhals | Берхальс
08. Rematch | Реванш
09. Promise | Обещание
10. End of Absence | Снова в бой!
11. Rage | Ярость
12. Reika Nanjou | Рэйка Нанджо
13. Blue and Indigo | Два оттенка синего
14. Ghost | Призрак
15. Sturm | Штюрм
16. Freeze | Запрет
17. Defeat | Поражение
18. Farewell | Расставание
19. Resolve | Решение
20. Another Mind | Иное сознание
21. Disturbance | Конфронтация
22. Capture | Захват
23. Counterattack | Контратака
24. Silver Will | Серебряная мощь

Дополнительная информация

Слово Argevollen образовано авторами от латинского Argentum – «серебро» и немецкого wollen – «хотеть, требовать». Таким образом, сериал называется «Серебряная воля», что повторено в заголовке дважды – на японском и «языке места действия».

MediaInfo на первую серию

Код:
Общее
Уникальный идентификатор                 : 184438553220873136475594878917216195749 (0x8AC192C0D2D40954B281D000B59654A5)
Полное имя                               : P:\Shirogane no Ishi Argevollen [Ma10p_1080p]\[KTXP&VCB-Studio] Shirogane no Ishi Argevollen [01][Ma10p_1080p][x265_2flac].mkv
Формат                                   : Matroska
Версия формата                           : Version 2
Размер файла                             : 1,62 Гбайт
Продолжительность                        : 23 м.
Режим общего битрейта                    : Переменный
Общий поток                              : 9758 Кбит/сек
Дата кодирования                         : UTC 2015-06-03 13:32:22
Программа кодирования                    : mkvmerge v7.7.0 ('Six Voices') 32bit built on Feb 28 2015 23:23:00
Библиотека кодирования                   : libebml v1.3.1 + libmatroska v1.4.2

Видео
Идентификатор                            : 1
Формат                                   : HEVC
Формат/Информация                        : High Efficiency Video Coding
Профиль формата                          : Main 10@L5@Main
Идентификатор кодека                     : V_MPEGH/ISO/HEVC
Продолжительность                        : 23 м.
Битрейт                                  : 6802 Кбит/сек
Ширина                                   : 1920 пикселей
Высота                                   : 1080 пикселей
Соотношение сторон                       : 16:9
Режим частоты кадров                     : Постоянный
Частота кадров                           : 23,976 (24000/1001) кадра/сек
Цветовое пространство                    : YUV
Субдискретизация насыщенности            : 4:2:0
Битовая глубина                          : 10 бит
Бит/(Пиксели*Кадры)                      : 0.137
Размер потока                            : 1,13 Гбайт (70%)
Библиотека кодирования                   : x265 1.7+51-a7bf7a150a70+12@b4d9cbbb1c57:[Windows][GCC 4.9.2][64 bit] Yuuki 16bpp
Настройки программы                      : wpp / ctu=64 / min-cu-size=8 / max-tu-size=32 / tu-intra-depth=3 / tu-inter-depth=3 / me=3 / subme=5 / merange=44 / no-rect / no-amp / max-merge=4 / temporal-mvp / no-early-skip / rdpenalty=2 / no-tskip / no-tskip-fast / no-strong-intra-smoothing / no-lossless / no-cu-lossless / no-constrained-intra / no-fast-intra / no-open-gop / no-temporal-layers / interlace=0 / keyint=720 / min-keyint=1 / scenecut=40 / rc-lookahead=80 / lookahead-slices=0 / bframes=10 / bframe-bias=0 / b-adapt=2 / ref=5 / limit-refs=0 / weightp / weightb / aq-mode=1 / aq-strength=1.10 / cbqpoffs=0 / crqpoffs=0 / rd=5 / psy-rd=0.80 / rdoq-level=1 / psy-rdoq=4.00 / signhide / deblock=-2:-2 / no-sao / no-sao-non-deblock / b-pyramid / cutree / rc=crf / crf=15.5000 / qcomp=0.80 / qpmin=0 / qpmax=51 / qpstep=4 / vbv-maxrate=23000 / vbv-bufsize=25000 / crf-max=0.0 / ipratio=1.40 / pbratio=1.30
Язык                                     : English
Default                                  : Да
Forced                                   : Нет

Аудио #1
Идентификатор                            : 2
Формат                                   : FLAC
Формат/Информация                        : Free Lossless Audio Codec
Идентификатор кодека                     : A_FLAC
Продолжительность                        : 23 м.
Вид битрейта                             : Переменный
Битрейт                                  : 1563 Кбит/сек
Каналы                                   : 2 канала
Расположение каналов                     : Front: L R
Частота                                  : 48,0 КГц
Частота кадров                           : 11,719 кадров/сек (4096 spf)
Битовая глубина                          : 24 бит
Размер потока                            : 265 Мбайт (16%)
Библиотека кодирования                   : libFLAC 1.2.1 (UTC 2007-09-17)
Язык                                     : Japanese
Default                                  : Да
Forced                                   : Нет

Аудио #2
Идентификатор                            : 3
Формат                                   : FLAC
Формат/Информация                        : Free Lossless Audio Codec
Идентификатор кодека                     : A_FLAC
Продолжительность                        : 23 м.
Вид битрейта                             : Переменный
Битрейт                                  : 1391 Кбит/сек
Каналы                                   : 2 канала
Расположение каналов                     : Front: L R
Частота                                  : 48,0 КГц
Частота кадров                           : 11,719 кадров/сек (4096 spf)
Битовая глубина                          : 24 бит
Размер потока                            : 236 Мбайт (14%)
Библиотека кодирования                   : libFLAC 1.2.1 (UTC 2007-09-17)
Язык                                     : Japanese
Default                                  : Нет
Forced                                   : Нет

Меню
00:00:00.000                             : en:Chapter 01
00:10:59.992                             : en:Chapter 02
00:22:00.986                             : en:Chapter 03
00:23:30.992                             : en:Chapter 04
Также на трекере:
Shirogane no Ishi: Argevollen - [HDTV, 720p]

Смотреть Online

http://moonwalk.cc/serial/1e8b276a2184b159c1877dd77909f758/iframe
Детали торрента:
Название:Shirogane no Ishi: Argevollen | Аргеволлен: Серебряная мощь [2014, TV, 24] BDrip 1080p HEVC Hi10p raw
Дата добавления:21 Авг 2016 13:39:23
Размер:34,7 GB
Раздают:3
Качают:0
Форум:Аниме (FullHD)

All rights reserved © 2015-2018