TORRENTS43.COM

Скачать А.В. Засов. Лекция "Активные ядра галактик" (2015) WEBRip [H.264] [MP4|1920х1080]


А.В. Засов. Лекция "Активные ядра галактик" (2015) WEBRip
Жанр: Лекция, Документальный

Ведущий: А.В. Засов

Описание:
Полная версия лекции "Активные ядра галактик"
Лекцию читает доктор физико-математических наук, профессор кафедры астрофизики и звездной астрономии физического факультета МГУ, заведующий отделом Внегалактической астрономии ГАИШ МГУ, выпускник астрономических кружков Московского планетария Анатолий Владимирович Засов.

Продолжительность: 01:31:23
Качество видео: WEBRip

Видео: AVC/H.264, 1920х1080, ~820 Кбит/сек
Аудио: AAC, 2 ch, 126 Кбит/сек, VBR

Mediainfo:

Код:

Формат                                   : MPEG-4
Профиль формата                          : Base Media
Идентификатор кодека                     : isom (isom/iso2/avc1/mp41)
Размер файла                             : 621 Мбайт
Продолжительность                        : 1 ч. 31 м.
Режим общего битрейта                    : Переменный
Общий поток                              : 950 Кбит/сек
Дата кодирования                         : UTC 2015-04-14 16:55:49
Дата пометки                             : UTC 2015-04-14 16:55:49

Видео
Идентификатор                            : 1
Формат                                   : AVC
Формат/Информация                        : Advanced Video Codec
Профиль формата                          : High@L4
Параметр CABAC формата                   : Да
Параметр ReFrames формата                : 3 кадра
Идентификатор кодека                     : avc1
Идентификатор кодека/Информация          : Advanced Video Coding
Продолжительность                        : 1 ч. 31 м.
Битрейт                                  : 820 Кбит/сек
Ширина                                   : 1920 пикселей
Высота                                   : 1080 пикселей
Соотношение сторон                       : 16:9
Режим частоты кадров                     : Переменный
Частота кадров                           : 23,976 (24000/1001) кадра/сек
Минимальная частота кадров               : 23,974 кадра/сек
Максимальная частота кадров              : 23,981 кадра/сек
Цветовое пространство                    : YUV
Субдискретизация насыщенности            : 4:2:0
Битовая глубина                          : 8 бит
Тип развёртки                            : Прогрессивная
Бит/(Пиксели*Кадры)                      : 0.016
Размер потока                            : 536 Мбайт (86%)
Дата кодирования                         : UTC 2015-04-14 16:55:49
Дата пометки                             : UTC 2015-04-14 16:55:49

Аудио
Идентификатор                            : 2
Формат                                   : AAC
Формат/Информация                        : Advanced Audio Codec
Профиль формата                          : LC
Идентификатор кодека                     : 40
Продолжительность                        : 1 ч. 31 м.
Вид битрейта                             : Переменный
Битрейт                                  : 126 Кбит/сек
Каналы                                   : 2 канала
Расположение каналов                     : Front: L R
Частота                                  : 44,1 КГц
Частота кадров                           : 43,066 кадра/сек (1024 spf)
Метод сжатия                             : С потерями
Размер потока                            : 82,1 Мбайт (13%)
Default                                  : Да
Alternate group                          : 1
Скриншоты:



Детали торрента:
Название:А.В. Засов. Лекция "Активные ядра галактик" (2015) WEBRip [H.264] [MP4|1920х1080]
Дата добавления:26 Авг 2016 18:41:55
Размер:621 MB
Раздают:2
Качают:0
Форум:Мобильное Видео

All rights reserved © 2015-2018