TORRENTS43.COM

Скачать Теория Большого Взрыва / The Big Bang Theory (2015) HDTVRip [H.264/720p-LQ] (сезон 9, серии 1-24 из 24) [En / En sub]


Теория Большого Взрыва / The Big Bang Theory (2015) HDTVRip [H.264/720p-LQ] (сезон 9, серии 1-24 из 24) [En / En sub]
Производство: США
Жанр: Комедия

Режиссер: Марк Сендроуски, Энтони Джозеф Рич, Питер Чакос
Актеры: Джим Парсонс, Джонни Галэки, Кейли Куоко-Суитинг, Саймон Хелберг, Кунал Нэйэр, Мелисса Рауш, Майем Биалик

Описание:
Девушка, которая переезжает в квартиру на одной лестничной клетке с двумя талантливыми, но неловкими физиками, показывает им, насколько мало они знают о жизни за пределами лаборатории.



Качество видео: HDTVRip
Перевод: Отсутствует
Язык озвучки: Английский
Вид субтитров: Отдельным файлом
Язык субтитров: Английский

Видео: AVC/H.264, 1280x720, ~2500kbps
Аудио: AC3, 6 ch, 384kbps

Mediainfo:

Код:

General
Unique ID                                : 183603573101115251126576151334380009008 (0x8A20C30E0DC11BC2B2B78519CBAE7630)
Complete name                            : K:\bittorrent.completed\The Big Bang Theory\The.Big.Bang.Theory.S09.720p.HDTV.X264-DIMENSION\The.Big.Bang.Theory.S09E01.720p.HDTV.X264-DIMENSION.mkv
Format                                   : Matroska
Format version                           : Version 2
File size                                : 432 MiB
Duration                                 : 20 min 31 s
Overall bit rate                         : 2 947 kb/s
Encoded date                             : UTC 2015-09-21 21:57:25
Writing application                      : mkvmerge v3.1.0 ('Happy up here') built on Jan 19 2010 12:09:24
Writing library                          : libebml v0.7.9 + libmatroska v0.8.1

Video
ID                                       : 1
Format                                   : AVC
Format/Info                              : Advanced Video Codec
Format profile                           : High@L4.1
Format settings, CABAC                   : Yes
Format settings, ReFrames                : 8 frames
Codec ID                                 : V_MPEG4/ISO/AVC
Duration                                 : 20 min 31 s
Bit rate                                 : 2 504 kb/s
Width                                    : 1 280 pixels
Height                                   : 720 pixels
Display aspect ratio                     : 16:9
Frame rate mode                          : Constant
Frame rate                               : 23.976 (24000/1001) FPS
Color space                              : YUV
Chroma subsampling                       : 4:2:0
Bit depth                                : 8 bits
Scan type                                : Progressive
Bits/(Pixel*Frame)                       : 0.113
Stream size                              : 367 MiB (85%)
Writing library                          : x264 core 148 r2597 e86f3a1
Encoding settings                        : cabac=1 / ref=8 / deblock=1:-2:-2 / analyse=0x3:0x113 / me=umh / subme=9 / psy=1 / psy_rd=1.00:0.00 / mixed_ref=1 / me_range=24 / chroma_me=1 / trellis=1 / 8x8dct=1 / cqm=0 / deadzone=21,11 / fast_pskip=0 / chroma_qp_offset=-2 / threads=18 / lookahead_threads=2 / sliced_threads=0 / nr=0 / decimate=1 / interlaced=0 / bluray_compat=0 / constrained_intra=0 / bframes=5 / b_pyramid=2 / b_adapt=2 / b_bias=0 / direct=3 / weightb=1 / open_gop=0 / weightp=2 / keyint=250 / keyint_min=23 / scenecut=40 / intra_refresh=0 / rc_lookahead=50 / rc=crf / mbtree=1 / crf=18.0 / qcomp=0.60 / qpmin=0 / qpmax=69 / qpstep=4 / ip_ratio=1.40 / aq=1:1.00
Language                                 : English
Default                                  : No
Forced                                   : No

Audio
ID                                       : 2
Format                                   : AC-3
Format/Info                              : Audio Coding 3
Mode extension                           : CM (complete main)
Format settings, Endianness              : Big
Codec ID                                 : A_AC3
Duration                                 : 20 min 31 s
Bit rate mode                            : Constant
Bit rate                                 : 384 kb/s
Channel(s)                               : 6 channels
Channel positions                        : Front: L C R, Side: L R, LFE
Sampling rate                            : 48.0 kHz
Frame rate                               : 31.250 FPS (1536 spf)
Compression mode                         : Lossy
Delay relative to video                  : 100 ms
Stream size                              : 56.4 MiB (13%)
Default                                  : Yes
Forced                                   : No
Скриншоты:


Все одноименные релизы в Клубе

Смотреть Online

http://moonwalk.cc/serial/ab746cc5fef06c43cdc5a091af03e69d/iframe
Детали торрента:
Название:Теория Большого Взрыва / The Big Bang Theory (2015) HDTVRip [H.264/720p-LQ] (сезон 9, серии 1-24 из 24) [En / En sub]
Дата добавления:03 Сен 2016 04:39:41
Размер:10,4 GB
Раздают:2
Качают:0
Форум:Сериалы без перевода

All rights reserved © 2015-2018