TORRENTS43.COM

Скачать Теория Большого Взрыва / The Big Bang Theory (2012) BDRip [H.264/720p-LQ] (сезон 6, серии 1-24 из 24) [En / En sub]


Теория Большого Взрыва / The Big Bang Theory (2012) BDRip [H.264/720p-LQ] (сезон 6, серии 1-24 из 24) [En / En sub]
Производство: США
Жанр: Комедия

Режиссер: Марк Сендроуски, Энтони Джозеф Рич, Питер Чакос
Актеры: Джим Парсонс, Джонни Галэки, Кейли Куоко-Суитинг, Саймон Хелберг, Кунал Нэйэр, Мелисса Рауш, Майем Биалик

Описание:
Девушка, которая переезжает в квартиру на одной лестничной клетке с двумя талантливыми, но неловкими физиками, показывает им, насколько мало они знают о жизни за пределами лаборатории.



Качество видео: BDRip
Перевод: Отсутствует
Язык озвучки: Английский
Вид субтитров: Отдельным файлом
Язык субтитров: Английский

Видео: AVC/H.264, 1280x720, ~4500 kbps
Аудио: DTS, 6 ch, 1509 kbps

Mediainfo:

Код:

General
Unique ID                                : 247832956719008945383341267117024879514 (0xBA72E4294B99D0B69D7D9D085F06239A)
Complete name                            : K:\bittorrent.completed\The Big Bang Theory\The.Big.Bang.Theory.S06.720p.BluRay.x264-DEMAND\the.big.bang.theory.s06e01.720p.bluray.x264-demand.mkv
Format                                   : Matroska
Format version                           : Version 4 / Version 2
File size                                : 891 MiB
Duration                                 : 21 min 12 s
Overall bit rate                         : 5 873 kb/s
Encoded date                             : UTC 2013-08-30 00:12:16
Writing application                      : mkvmerge v6.2.0 ('Promised Land') built on Apr 28 2013 12:22:01
Writing library                          : libebml v1.3.0 + libmatroska v1.4.0

Video
ID                                       : 1
Format                                   : AVC
Format/Info                              : Advanced Video Codec
Format profile                           : High@L4.1
Format settings, CABAC                   : Yes
Format settings, ReFrames                : 5 frames
Codec ID                                 : V_MPEG4/ISO/AVC
Duration                                 : 21 min 12 s
Bit rate                                 : 4 366 kb/s
Width                                    : 1 280 pixels
Height                                   : 720 pixels
Display aspect ratio                     : 16:9
Frame rate mode                          : Constant
Frame rate                               : 23.976 FPS
Color space                              : YUV
Chroma subsampling                       : 4:2:0
Bit depth                                : 8 bits
Scan type                                : Progressive
Bits/(Pixel*Frame)                       : 0.198
Stream size                              : 644 MiB (72%)
Title                                    : X264
Writing library                          : x264 core 133 r2334 a3ac64b
Encoding settings                        : cabac=1 / ref=5 / deblock=1:0:0 / analyse=0x3:0x133 / me=umh / subme=7 / psy=1 / psy_rd=1.00:0.00 / mixed_ref=1 / me_range=16 / chroma_me=1 / trellis=1 / 8x8dct=1 / cqm=0 / deadzone=21,11 / fast_pskip=0 / chroma_qp_offset=-2 / threads=18 / lookahead_threads=3 / sliced_threads=0 / nr=0 / decimate=1 / interlaced=0 / bluray_compat=0 / constrained_intra=0 / bframes=3 / b_pyramid=2 / b_adapt=1 / b_bias=0 / direct=1 / weightb=1 / open_gop=0 / weightp=2 / keyint=250 / keyint_min=23 / scenecut=40 / intra_refresh=0 / rc_lookahead=40 / rc=2pass / mbtree=1 / bitrate=4366 / ratetol=1.0 / qcomp=0.60 / qpmin=0 / qpmax=69 / qpstep=4 / cplxblur=20.0 / qblur=0.5 / ip_ratio=1.40 / aq=1:1.00
Language                                 : English
Default                                  : Yes
Forced                                   : No

Audio
ID                                       : 2
Format                                   : DTS
Format/Info                              : Digital Theater Systems
Mode                                     : 16
Format settings, Endianness              : Big
Codec ID                                 : A_DTS
Duration                                 : 21 min 12 s
Bit rate mode                            : Constant
Bit rate                                 : 1 509 kb/s
Channel(s)                               : 6 channels
Channel positions                        : Front: L C R, Side: L R, LFE
Sampling rate                            : 48.0 kHz
Frame rate                               : 93.750 FPS (512 spf)
Bit depth                                : 24 bits
Compression mode                         : Lossy
Stream size                              : 229 MiB (26%)
Title                                    : DTS
Language                                 : English
Default                                  : Yes
Forced                                   : No

Menu
00:00:00.000                             : en:00:00:00.000
00:00:17.726                             : en:00:00:17.726
00:02:43.163                             : en:00:02:43.163
00:09:04.377                             : en:00:09:04.377
00:19:46.811                             : en:00:19:46.811
00:20:43.242                             : en:00:20:43.242
Скриншоты:


Все одноименные релизы в Клубе

Смотреть Online

http://moonwalk.cc/serial/ab746cc5fef06c43cdc5a091af03e69d/iframe
Детали торрента:
Название:Теория Большого Взрыва / The Big Bang Theory (2012) BDRip [H.264/720p-LQ] (сезон 6, серии 1-24 из 24) [En / En sub]
Дата добавления:03 Сен 2016 17:08:09
Размер:20,9 GB
Раздают:1
Качают:0
Форум:Сериалы без перевода

All rights reserved © 2015-2018