TORRENTS43.COM

Скачать Люди Икс: Апокалипсис / X-Men: Apocalypse (2016) BDRip [1080p] ATV


Люди Икс: Апокалипсис / X-Men: Apocalypse (2016) BDRip [1080p] ATV
«Выживет сильнейший»

Год выпуска: 2016
Производство: США
Жанр: Фантастика, боевик, приключения
Продолжительность: 02:23:56

Перевод: Дублированный (iTunes)
Субтитры: Русские форсированные, Английские форсированные, Русские, Английские
Режиссер: Брайан Сингер
Актеры: Джеймс МакЭвой, Майкл Фассбендер, Дженнифер Лоуренс, Николас Холт, Оскар Айзек, Роуз Бирн, Эван Питерс, Джош Хелман, Софи Тернер, Тай Шеридан

Мировая премьера: 9 мая 2016



Описание: События «Дней Минувшего Будущего» оказали колоссальное влияние на мир, где мутанты и люди борются за свое место под Солнцем. В это нелегкое время Людям Икс предстоит столкнуться со своим самым опасным противником — древним мутантом Апокалипсисом, существом, схватка с которым может стать последней не только для мутантов, но и в принципе для всего человечества. В поисках способа победы над неуязвимым и бессмертным монстром Людям Икс предстоит узнать больше о происхождении своего вида. Но Апокалипсис неимоверно силен, и вероятность победы все уменьшается, ведь он твердо убежден, что только сильнейшие имеют право на выживание…
Качество: BDRip 1080p
Контейнер: M4V
Видео: H.264, 1920x800, 2.40:1, 8 000 Kbps, 23.976 fps

Аудио 1: Русский/Дублированный (iTunes), AAC / 2.0 / 160 Kbps / 48.0 KHz
Аудио 2: Английский/Оригинальная дорожка , AAC / 2.0 / 160 Kbps / 48.0 KHz
Аудио 3: Русский/Дублированный (iTunes), AC-3 / 5.1 / 384 Kbps / 48.0 KHz
Аудио 4: Английский/Оригинальная дорожка , AC-3 / 5.1 / 640 Kbps / 48.0 KHz

iTunes Meta Tags

Код:

Sort Name: X-Men: Apocalypse
XID: Apple:vendor_id:2016-814016
contentID: 1111396385
Copyright: © 2016 Twentieth Century Fox Film Corporation. All rights reserved. MARVEL TM & 2016 MARVEL & Subs.
Screenwriters: Саймон Кинберг, Брайан Сингер, Майкл Догерти
Producers: Саймон Кинберг, Лорен Шулер Доннер, Брайан Сингер
Director: Брайан Сингер
Cast: Джеймс МакЭвой, Майкл Фассбендер, Дженнифер Лоуренс, Николас Холт, Оскар Айзек, Роуз Бирн, Эван Питерс, Джош Хелман, Софи Тернер, Тай Шеридан, Евгений Вальц, Илья Исаев, Татьяна Шитова, Василий Зотов, Владимир Рыбальченко
Studio: 20th Century Fox
Rating: 4
Long Description: События "Дней Минувшего Будущего" оказали колоссальное влияние на мир, где мутанты и люди борются за свое место под Солнцем. В это нелегкое время Людям Икс предстоит столкнуться со своим самым опасным противником - древним мутантом Апокалипсисом, существом, схватка с которым может стать последней не только для мутантов, но и в принципе для всего человечества. В поисках способа победы над неуязвимым и бессмертным монстром Людям Икс предстоит узнать больше о происхождении своего вида. Но Апокалипсис неимоверно силен, и вероятность победы все уменьшается, ведь он твердо убежден, что только сильнейшие имеют право на выживание...
Description: События "Дней Минувшего Будущего" оказали колоссальное влияние на мир, где мутанты и люди борются за свое место под Солнцем. В это нелегкое время Людям Икс предстоит столкнуться со своим самым опасным противником - древним мутантом Апокалипсисом, существом, схватка с которым может стать последней не только для мутантов, но и в принципе для всего человечества.
Release Date: 2016-05-09T08:00:00Z
Genre: Action & Adventure
Artist: Bryan Singer
Name: X-Men: Apocalypse

MediaInfo

Код:

General
Complete name : /Users/imac/HandBrake/X-Men- Apocalypse (1080p HD).m4v
Format : MPEG-4
Codec ID : M4V
File size : 9.40 GiB
Duration : 2h 23mn
Overall bit rate mode : Variable
Overall bit rate : 9 346 Kbps
Movie name : X-Men: Apocalypse
Performer : Bryan Singer
Director : Брайан Сингер
Actor : Джеймс МакЭвой / Майкл Фассбендер / Дженнифер Лоуренс / Николас Холт / Оскар Айзек / Роуз Бирн / Эван Питерс / Джош Хелман / Софи Тернер / Тай Шеридан / Евгений Вальц / Илья Исаев / Татьяна Шитова / Василий Зотов / Владимир Рыбальченко
Screenplay by : Саймон Кинберг / Брайан Сингер / Майкл Догерти
Producer : Саймон Кинберг / Лорен Шулер Доннер / Брайан Сингер
Production studio : 20th Century Fox
Genre : Action & Adventure
ContentType : Short Film
Description : События "Дней Минувшего Будущего" оказали колоссальное влияние на мир, где мутанты и люди борются за свое место под Солнцем. В это нелегкое время Людям Икс предстоит столкнуться со своим самым опасным противником - древним мутантом Апокалипсисом, существом, схватка с которым может стать последней не только для мутантов, но и в принципе для всего человечества.
Recorded date : UTC 2016-05-09 08:00:00
Encoded date : UTC 2016-09-10 09:31:29
Tagged date : UTC 2016-09-10 09:35:52
Copyright : © 2016 Twentieth Century Fox Film Corporation. All rights reserved. MARVEL TM & 2016 MARVEL & Subs.
Cover : Yes
Rating : None
Title/Sort : X-Men: Apocalypse
LongDescription : События "Дней Минувшего Будущего" оказали колоссальное влияние на мир, где мутанты и люди борются за свое место под Солнцем. В это нелегкое время Людям Икс предстоит столкнуться со своим самым опасным противником - древним мутантом Апокалипсисом, существом, схватка с которым может стать последней не только для мутантов, но и в принципе для всего человечества. В поисках способа победы над неуязвимым и бессмертным монстром Людям Икс предстоит узнать больше о происхождении своего вида. Но Апокалипсис неимоверно силен, и вероятность победы все уменьшается, ведь он твердо убежден, что только сильнейшие имеют право на выживание...
AppleStoreCatalogID : 1111396385
Vendor : Apple:vendor_id:2016-814016
ContentRating : mpaa|PG-13|300|

Video #1
ID : 1
Format : AVC
Format/Info : Advanced Video Codec
Format profile : High@L4
Format settings, CABAC : Yes
Format settings, ReFrames : 4 frames
Codec ID : avc1
Codec ID/Info : Advanced Video Coding
Duration : 2h 23mn
Source duration : 2h 23mn
Bit rate : 8 000 Kbps
Width : 1 920 pixels
Height : 800 pixels
Display aspect ratio : 2.40:1
Frame rate mode : Variable
Frame rate : 23.976 fps
Minimum frame rate : 23.974 fps
Maximum frame rate : 23.981 fps
Color space : YUV
Chroma subsampling : 4:2:0
Bit depth : 8 bits
Scan type : Progressive
Bits/(Pixel*Frame) : 0.217
Stream size : 8.04 GiB (86%)
Source stream size : 8.04 GiB (86%)
Title : Main Program
Writing library : x264 core 142 r2479 dd79a61
Encoding settings : cabac=1 / ref=4 / deblock=1:-2:-2 / analyse=0x3:0x133 / me=umh / subme=10 / psy=1 / psy_rd=1.00:0.15 / mixed_ref=1 / me_range=32 / chroma_me=1 / trellis=2 / 8x8dct=1 / cqm=0 / deadzone=21,11 / fast_pskip=0 / chroma_qp_offset=-3 / threads=36 / lookahead_threads=6 / sliced_threads=0 / nr=0 / decimate=0 / interlaced=0 / bluray_compat=0 / constrained_intra=0 / bframes=16 / b_pyramid=2 / b_adapt=2 / b_bias=0 / direct=3 / weightb=1 / open_gop=0 / weightp=2 / keyint=240 / keyint_min=24 / scenecut=40 / intra_refresh=0 / rc_lookahead=60 / rc=2pass / mbtree=1 / bitrate=8000 / ratetol=1.0 / qcomp=0.70 / qpmin=0 / qpmax=69 / qpstep=4 / cplxblur=20.0 / qblur=0.5 / vbv_maxrate=25000 / vbv_bufsize=25000 / nal_hrd=none / filler=0 / ip_ratio=1.40 / aq=1:1.00
Language : English
Encoded date : UTC 2016-09-10 09:31:29
Tagged date : UTC 2016-09-10 09:31:50
Color range : Limited
Color primaries : BT.709
Transfer characteristics : BT.709
Matrix coefficients : BT.709

Video #2
ID : 11
Format : JPEG
Codec ID : jpeg
Duration : 2h 23mn
Bit rate mode : Variable
Bit rate : 1 007 bps
Width : 640 pixels
Height : 266 pixels
Display aspect ratio : 2.40:1
Frame rate mode : Variable
Frame rate : 0.003 fps
Minimum frame rate : 0.002 fps
Maximum frame rate : 0.009 fps
Color space : YUV
Chroma subsampling : 4:2:0
Bit depth : 8 bits
Compression mode : Lossy
Bits/(Pixel*Frame) : 1.972
Stream size : 1.12 MiB (0%)
Title : Chapter Images
Language : English
Encoded date : UTC 2016-09-10 09:32:20
Tagged date : UTC 2016-09-10 09:32:21

Audio #1
ID : 2
Format : AAC
Format/Info : Advanced Audio Codec
Format profile : LC
Codec ID : 40
Duration : 2h 23mn
Bit rate mode : Variable
Bit rate : 157 Kbps
Maximum bit rate : 236 Kbps
Channel(s) : 2 channels
Channel positions : Front: L R
Sampling rate : 48.0 KHz
Compression mode : Lossy
Stream size : 162 MiB (2%)
Title : Russian Stereo
Language : Russian
Encoded date : UTC 2016-09-10 09:31:29
Tagged date : UTC 2016-09-10 09:31:55

Audio #2
ID : 3
Format : AAC
Format/Info : Advanced Audio Codec
Format profile : LC
Codec ID : 40
Duration : 2h 23mn
Bit rate mode : Variable
Bit rate : 158 Kbps
Maximum bit rate : 239 Kbps
Channel(s) : 2 channels
Channel positions : Front: L R
Sampling rate : 48.0 KHz
Compression mode : Lossy
Stream size : 163 MiB (2%)
Title : English Stereo
Language : English
Encoded date : UTC 2016-09-10 09:31:29
Tagged date : UTC 2016-09-10 09:31:55

Audio #3
ID : 4
Format : AC-3
Format/Info : Audio Coding 3
Mode extension : CM (complete main)
Format settings, Endianness : Big
Codec ID : ac-3
Duration : 2h 23mn
Bit rate mode : Constant
Bit rate : 384 Kbps
Channel(s) : 6 channels
Channel positions : Front: L C R, Side: L R, LFE
Sampling rate : 48.0 KHz
Bit depth : 16 bits
Compression mode : Lossy
Stream size : 395 MiB (4%)
Title : Russian DD 5.1
Language : Russian
Encoded date : UTC 2016-09-10 09:31:29
Tagged date : UTC 2016-09-10 09:31:51

Audio #4
ID : 5
Format : AC-3
Format/Info : Audio Coding 3
Mode extension : CM (complete main)
Format settings, Endianness : Big
Codec ID : ac-3
Duration : 2h 23mn
Bit rate mode : Constant
Bit rate : 640 Kbps
Channel(s) : 6 channels
Channel positions : Front: L C R, Side: L R, LFE
Sampling rate : 48.0 KHz
Bit depth : 16 bits
Compression mode : Lossy
Stream size : 659 MiB (7%)
Title : English DD 5.1
Language : English
Encoded date : UTC 2016-09-10 09:31:29
Tagged date : UTC 2016-09-10 09:31:51

Text #1
ID : 6
Format : Timed Text
Muxing mode : sbtl
Codec ID : tx3g
Duration : 1h 29mn
Bit rate mode : Variable
Bit rate : 5 bps
Stream size : 3.49 KiB (0%)
Title : Russian forced
Language : Russian
Encoded date : UTC 2016-09-10 09:31:29
Tagged date : UTC 2016-09-10 09:31:29

Text #2
ID : 7
Format : Timed Text
Muxing mode : sbtl
Codec ID : tx3g
Duration : 1h 29mn
Bit rate mode : Variable
Bit rate : 4 bps
Stream size : 2.31 KiB (0%)
Title : English forced
Language : English
Encoded date : UTC 2016-09-10 09:31:29
Tagged date : UTC 2016-09-10 09:31:29

Text #3
ID : 8
Format : Timed Text
Muxing mode : sbtl
Codec ID : tx3g
Duration : 2h 23mn
Bit rate mode : Variable
Bit rate : 61 bps
Stream size : 64.6 KiB (0%)
Title : Russian full
Language : Russian
Encoded date : UTC 2016-09-10 09:31:29
Tagged date : UTC 2016-09-10 09:31:29

Text #4
ID : 9
Format : Timed Text
Muxing mode : sbtl
Codec ID : tx3g
Duration : 2h 13mn
Bit rate mode : Variable
Bit rate : 44 bps
Stream size : 43.0 KiB (0%)
Title : English full
Language : English
Encoded date : UTC 2016-09-10 09:31:29
Tagged date : UTC 2016-09-10 09:31:29

Menu #1
00:00:00.000 : Chapter 1
00:08:18.873 : Chapter 2
00:14:12.769 : Chapter 3
00:18:07.169 : Chapter 4
00:24:55.577 : Chapter 5
00:30:45.427 : Chapter 6
00:36:34.692 : Chapter 7
00:41:00.166 : Chapter 8
00:45:56.587 : Chapter 9
00:49:24.378 : Chapter 10
00:55:22.694 : Chapter 11
00:59:36.907 : Chapter 12
01:04:43.755 : Chapter 13
01:12:35.935 : Chapter 14
01:17:32.982 : Chapter 15
01:22:18.600 : Chapter 16
01:27:45.677 : Chapter 17
01:34:05.890 : Chapter 18
01:36:46.718 : Chapter 19
01:39:50.193 : Chapter 20
01:43:34.458 : Chapter 21
01:49:56.548 : Chapter 22
01:55:07.943 : Chapter 23
01:57:21.743 : Chapter 24
02:03:50.632 : Chapter 25
02:07:56.794 : Chapter 26
02:10:59.185 : Chapter 27
02:12:54.175 : Chapter 28

Menu #2
ID : 10
Codec ID : text
Duration : 2h 23mn
Language : English
Encoded date : UTC 2016-09-10 09:31:55
Tagged date : UTC 2016-09-10 09:31:55
00:00:00.000 : Chapter 1
00:08:18.873 : Chapter 2
00:14:12.769 : Chapter 3
00:18:07.169 : Chapter 4
00:24:55.577 : Chapter 5
00:30:45.427 : Chapter 6
00:36:34.692 : Chapter 7
00:41:00.166 : Chapter 8
00:45:56.587 : Chapter 9
00:49:24.378 : Chapter 10
00:55:22.694 : Chapter 11
00:59:36.907 : Chapter 12
01:04:43.755 : Chapter 13
01:12:35.935 : Chapter 14
01:17:32.982 : Chapter 15
01:22:18.600 : Chapter 16
01:27:45.677 : Chapter 17
01:34:05.890 : Chapter 18
01:36:46.718 : Chapter 19
01:39:50.193 : Chapter 20
01:43:34.458 : Chapter 21
01:49:56.548 : Chapter 22
01:55:07.943 : Chapter 23
01:57:21.743 : Chapter 24
02:03:50.632 : Chapter 25
02:07:56.794 : Chapter 26
02:10:59.185 : Chapter 27
02:12:54.175 : Chapter 28
Bit rate mode : VBR

x264 лог

Код:

x264 [info]: frame I:1704  Avg QP:16.46  size:223835
x264 [info]: frame P:55523 Avg QP:19.26  size: 69004
x264 [info]: frame B:149836 Avg QP:19.67  size: 29506
x264 [info]: consecutive B-frames:  5.5%  8.4% 12.9% 13.6% 15.0% 39.7%  3.7%  0.4%  0.3%  0.2%  0.2%  0.1%  0.0%  0.0%  0.0%  0.0%  0.0%
x264 [info]: mb I  I16..4: 15.3% 67.5% 17.2%
x264 [info]: mb P  I16..4:  2.9% 18.7%  1.4%  P16..4: 46.9% 17.0% 11.7%  0.3%  0.1%    skip: 0.9%
x264 [info]: mb B  I16..4:  0.2%  2.2%  0.2%  B16..8: 45.1%  9.3%  2.0%  direct: 9.8%  skip:31.2%  L0:42.6% L1:45.8% BI:11.5%
x264 [info]: 8x8 transform intra:80.9% inter:62.2%
x264 [info]: direct mvs  spatial:95.7% temporal:4.3%
x264 [info]: coded y,uvDC,uvAC intra: 89.7% 88.9% 68.7% inter: 32.3% 38.3% 18.6%
x264 [info]: i16 v,h,dc,p: 11% 10% 21% 58%
x264 [info]: i8 v,h,dc,ddl,ddr,vr,hd,vl,hu: 10% 10%  8%  9% 12% 12% 13% 12% 14%
x264 [info]: i4 v,h,dc,ddl,ddr,vr,hd,vl,hu: 10%  9%  4%  9% 15% 14% 15% 11% 14%
x264 [info]: i8c dc,h,v,p: 48% 19% 16% 17%
x264 [info]: Weighted P-Frames: Y:4.1% UV:2.4%
x264 [info]: ref P L0: 53.4% 10.7% 24.7%  9.4%  1.8%  0.1%
x264 [info]: ref B L0: 83.6% 13.8%  2.6%
x264 [info]: ref B L1: 91.9%  8.1%
x264 [info]: kb/s:7997.64

Скриншоты:





Релиз подготовлен для просмотра на Apple TV, iPad, iPhone, iPod Touch.
Для просмотра данного релиза на компьютере с ОС Windows рекомендуется использовать VLC media player

Смотреть Online

http://moonwalk.cc/video/b24e2d287d5ee721/iframe
Детали торрента:
Название:Люди Икс: Апокалипсис / X-Men: Apocalypse (2016) BDRip [1080p] ATV
Дата добавления:10 Сен 2016 13:31:00
Размер:9,4 GB
Раздают:1
Качают:0
Форум:Зарубежное видео HD для устройств Apple

All rights reserved © 2015-2018