TORRENTS43.COM

Скачать Охота (2016.09.17) SATRip (выпуск 1)


Охота (2016.09.17) SATRip (выпуск 1)
Производство: НТВ
Жанр: Реалити-шоу, ТВ-Шоу

Описание:
17 сентября жизнь нескольких десятков людей изменится навсегда. В этот день 29 человек из разных уголков России превратятся в живую мишень для агентов спецслужб в рамках невероятного социального эксперимента НТВ «Охота». Участникам триллера в реальном времени предстоит выжить в условиях тотальной слежки. Они забудут голоса родных, теплую постель, свой пароль к аккаунту в социальной сети и осознают, что каждая минута может стать последней в борьбе за 3 000 000 рублей!
17 сентября зрители НТВ узнают, кто же они — эти отчаянные добровольцы, которые отправятся в самое экстремальное путешествие в жизни. Они переступят порог своего дома, наспех попрощавшись с семьей, и их имена тут же станут известны всей стране. Но главное — 40 лучшим специалистам по поиску людей в России. С этого момента всё будет зависеть только от беглецов.
Зрители станут свидетелями беспрецедентной слежки, не имеющей аналогов в мире. Масштаб проекта поражает: 10 000 000 квадратных километров, 9 часовых поясов, 200 операторов и 170 телекамер. Участники могут скрываться где угодно, единственное условие — не заходить за границы Российской Федерации. Смогут ли беглецы перехитрить новейшие методы слежки, обмануть опытных сыщиков и отсрочить свое выбывание из шоу?

Релиз от: -=FOX=-
Продолжительность: 01:16:51
Качество видео: SATRip
Субтитры: Отсутствуют

Видео: MPEG4, XviD, 720x448 (1.607), 25.000 fps, 1 799 Kbps (0.223 bit/pixel)
Аудио: MP3, 48.0 KHz, 2 ch, 128 Kbps, CBR

Mediainfo:

Код:
 Общее
Полное имя                               : D:\[1]\Охота\Охота. Выпуск 1 (2016.09.17).avi
Формат                                   : AVI
Формат/Информация                        : Audio Video Interleave
Размер файла                             : 1,04 Гбайт
Продолжительность                        : 1 ч. 16 м.
Общий поток                              : 1937 Кбит/сек
Программа кодирования                    : VirtualDubModRus 1.5.10.2 (build 2542/release)
Библиотека кодирования                   : VirtualDubMod build 2542/release

Видео
Идентификатор                            : 0
Формат                                   : MPEG-4 Visual
Профиль формата                          : Advanced Simple@L5
Параметр BVOP формата                    : 2
Параметр QPel формата                    : Нет
Параметр GMC формата                     : Без точки перехода
Параметр матрицы формата                 : Default (MPEG)
Идентификатор кодека                     : XVID
Идентификатор кодека/Подсказка           : XviD
Продолжительность                        : 1 ч. 16 м.
Битрейт                                  : 1799 Кбит/сек
Ширина                                   : 720 пикселей
Высота                                   : 448 пикселей
Соотношение сторон                       : 16:10
Частота кадров                           : 25,000 кадров/сек
Цветовое пространство                    : YUV
Субдискретизация насыщенности            : 4:2:0
Битовая глубина                          : 8 бит
Тип развёртки                            : Прогрессивная
Метод сжатия                             : С потерями
Бит/(Пиксели*Кадры)                      : 0.223
Размер потока                            : 989 Мбайт (93%)
Библиотека кодирования                   : XviD 73

Аудио
Идентификатор                            : 1
Формат                                   : MPEG Audio
Версия формата                           : Version 1
Профиль формата                          : Layer 3
Идентификатор кодека                     : 55
Идентификатор кодека/Подсказка           : MP3
Продолжительность                        : 1 ч. 16 м.
Вид битрейта                             : Постоянный
Битрейт                                  : 128 Кбит/сек
Каналы                                   : 2 канала
Частота                                  : 48,0 КГц
Метод сжатия                             : С потерями
Размер потока                            : 70,4 Мбайт (7%)
Выравнивание                             : Соединение по промежуткам
Продолжительность промежутка             : 40  мс. (1,00 видеокадр)
Время предзагрузки промежутка            : 504  мс.
Библиотека кодирования                   : LAME3.99r
Настройки программы                      : -m s -V 4 -q 2 -lowpass 17 -b 128
 
Скриншоты:




Все одноименные релизы в Клубе

Смотреть Online

http://moonwalk.cc/video/69ebb77870ded127/iframe
Детали торрента:
Название:Охота (2016.09.17) SATRip (выпуск 1)
Дата добавления:17 Сен 2016 16:48:05
Размер:1,04 GB
Раздают:
Качают:0
Форум:Телешоу

All rights reserved © 2015-2018