TORRENTS43.COM

Скачать Футбол. Чемпионат России 2016-2017. 7-й тур. Локомотив (Москва) - Уфа (17.09.2016) HDTVRip [H.264/720p-LQ] [hand made 50 fps]


Футбол. Чемпионат России 2016-2017. 7-й тур. Локомотив (Москва) - Уфа (17.09.2016) HDTVRip [H.264/720p-LQ] [hand made 50 fps]
Телекомпания: Матч ТВ HD
Жанр: Спорт
Язык озвучки: Русский (Константин Генич, Михаил Поленов, Михаил Моссаковский) / Интершум

Описание:
17 сентября 2016, суббота. 19:00 МСК
7-й тур

Стадион: Локомотив (Москва, Россия) , 9 714 зрителей (34 % при вместимости 28 800)
Главный судья: Виталий Мешков (Дмитров, Россия)
Ассистент: Алексей Лебедев (Санкт-Петербург, Россия)
Ассистент: Дмитрий Жвакин (Санкт-Петербург, Россия)
Резервный: Алексей Сухой (Люберцы, Россия)

Продолжительность: 01:41:59
Качество видео: HDTVRip
Формат видео: MKV
Автор рипа: Rusla74U

Видео: AVC/H.264, 1280x720, ~4000 Kbps, 50 fps
Аудио: AC3, 2 ch, 128 Kbps

Mediainfo:

Код:

Общее
Уникальный идентификатор                 : 59923296272712927873528539600277090094 (0x2D14CE9BDD433D62AF673C5495A22F2E)
Полное имя                               : M:\СПОРТ\ФУТБОЛ\РОССИЯ\Футбол. Чемпионат России 2016-2017. 7 тур. Локомотив - Уфа HDTVRip 720p.mkv
Формат                                   : Matroska
Версия формата                           : Version 4 / Version 2
Размер файла                             : 3,11 Гбайт
Продолжительность                        : 1 ч. 41 м.
Общий поток                              : 4360 Кбит/сек
Программа кодирования                    : Lavf57.20.100
Библиотека кодирования                   : Lavf57.20.100 / Lavf57.20.100

Видео
Идентификатор                            : 1
Формат                                   : AVC
Формат/Информация                        : Advanced Video Codec
Профиль формата                          : High@L3.2
Параметр CABAC формата                   : Да
Параметр ReFrames формата                : 4 кадра
Идентификатор кодека                     : V_MPEG4/ISO/AVC
Битрейт                                  : 4017 Кбит/сек
Ширина                                   : 1280 пикселей
Высота                                   : 720 пикселей
Соотношение сторон                       : 16:9
Режим частоты кадров                     : Переменный
Цветовое пространство                    : YUV
Субдискретизация насыщенности            : 4:2:0
Битовая глубина                          : 8 бит
Тип развёртки                            : Прогрессивная
Библиотека кодирования                   : x264 core 148 r2694 3b70645
Настройки программы                      : cabac=1 / ref=3 / deblock=1:0:0 / analyse=0x3:0x113 / me=hex / subme=7 / psy=1 / psy_rd=1.00:0.00 / mixed_ref=1 / me_range=16 / chroma_me=1 / trellis=1 / 8x8dct=1 / cqm=0 / deadzone=21,11 / fast_pskip=1 / chroma_qp_offset=-2 / threads=12 / lookahead_threads=2 / sliced_threads=0 / nr=0 / decimate=1 / interlaced=0 / bluray_compat=0 / constrained_intra=0 / bframes=3 / b_pyramid=2 / b_adapt=1 / b_bias=0 / direct=1 / weightb=1 / open_gop=0 / weightp=2 / keyint=250 / keyint_min=25 / scenecut=40 / intra_refresh=0 / rc_lookahead=40 / rc=crf / mbtree=1 / crf=21.5 / qcomp=0.60 / qpmin=0 / qpmax=69 / qpstep=4 / ip_ratio=1.40 / aq=1:1.00
Default                                  : Да
Forced                                   : Нет
DURATION                                 : 01:41:59.278000000

Аудио #1
Идентификатор                            : 2
Формат                                   : AC-3
Формат/Информация                        : Audio Coding 3
Расширение режима                        : CM (complete main)
Параметр Endianness формата              : Big
Идентификатор кодека                     : A_AC3
Продолжительность                        : 1 ч. 41 м.
Вид битрейта                             : Постоянный
Битрейт                                  : 128 Кбит/сек
Каналы                                   : 2 канала
Расположение каналов                     : Front: L R
Частота                                  : 48,0 КГц
Частота кадров                           : 31,250 кадров/сек (1536 spf)
Битовая глубина                          : 32 бит
Метод сжатия                             : С потерями
Размер потока                            : 93,4 Мбайт (3%)
Библиотека кодирования                   : Lavc57.48.102 ac3
Язык                                     : Russian
Default                                  : Да
Forced                                   : Нет
DURATION                                 : 01:41:59.241000000

Аудио #2
Идентификатор                            : 3
Формат                                   : AC-3
Формат/Информация                        : Audio Coding 3
Расширение режима                        : CM (complete main)
Параметр Endianness формата              : Big
Идентификатор кодека                     : A_AC3
Продолжительность                        : 1 ч. 41 м.
Вид битрейта                             : Постоянный
Битрейт                                  : 128 Кбит/сек
Каналы                                   : 2 канала
Расположение каналов                     : Front: L R
Частота                                  : 48,0 КГц
Частота кадров                           : 31,250 кадров/сек (1536 spf)
Битовая глубина                          : 32 бит
Метод сжатия                             : С потерями
Размер потока                            : 93,4 Мбайт (3%)
Библиотека кодирования                   : Lavc57.48.102 ac3
Default                                  : Да
Forced                                   : Нет
DURATION                                 : 01:41:59.241000000
Скриншоты:


Детали торрента:
Название:Футбол. Чемпионат России 2016-2017. 7-й тур. Локомотив (Москва) - Уфа (17.09.2016) HDTVRip [H.264/720p-LQ] [hand made 50 fps]
Дата добавления:17 Сен 2016 22:42:35
Размер:3,11 GB
Раздают:
Качают:0
Форум:Архив Документалистики и TV

All rights reserved © 2015-2018