TORRENTS43.COM

Скачать Никто не узнает / Dare mo shiranai (2004) HDRip


Никто не узнает / Dare mo shiranai (2004) HDRip
Производство: Япония
Жанр: Драма

Режиссер: Хирокадзу Корээда
Актеры: Юя Ягира, Сей Хирайзуми, Рио Касэ, Кэнити Эндо, Сусуму Терадзима, Момоко Шимицу, Ханаэ Кан, Кадзуёси Кусида, Юкико Окамото, Ючи Кимура

Описание:
Четверо братьев и сестер живут счастливо со своей матерью в маленькой квартирке в Токио. У всех детей разные отцы. Они никогда не ходили в школу. Сам факт существования троих из них скрывается от хозяина дома.
Однажды мать уходит, оставив немного денег и записку, в которой просит 12-летнего сына присмотреть за остальными. Так начинается одиссея детей, путешествие, конечный пункт которого никто не знает...


Рейтинг MPAA: PG-13 (детям до 13 лет просмотр нежелателен)

Продолжительность: 02:20:39
Качество видео: HDRip
Перевод: Многоголосый, закадровый, профессиональный

Видео: Xvid, 688x384, ~1272 kbps
Аудио: AC3, 2 ch, 192 kbps, CBR

Mediainfo:

Код: выделить все

Общее
Полное имя                               : F:\КИНО\Dare mo shiranai.avi
Формат                                   : AVI
Формат/Информация                        : Audio Video Interleave
Размер файла                             : 1,45 Гбайт
Продолжительность                        : 2 ч. 20 м.
Общий поток                              : 1473 Кбит/сек
Программа кодирования                    : VirtualDubMod 1.5.10.3 | www.virtualdub-fr.org || (build 2550/release)
Библиотека кодирования                   : VirtualDubMod build 2550/release

Видео
Идентификатор                            : 0
Формат                                   : MPEG-4 Visual
Профиль формата                          : Advanced Simple@L5
Параметр BVOP формата                    : 1
Параметр QPel формата                    : Нет
Параметр GMC формата                     : Без точки перехода
Параметр матрицы формата                 : Выборочная
Идентификатор кодека                     : XVID
Идентификатор кодека/Подсказка           : XviD
Продолжительность                        : 2 ч. 20 м.
Битрейт                                  : 1272 Кбит/сек
Ширина                                   : 688 пикселей
Высота                                   : 384 пикселя
Соотношение сторон                       : 16:9
Частота кадров                           : 23,976 (23976/1000) кадра/сек
Цветовое пространство                    : YUV
Субдискретизация насыщенности            : 4:2:0
Битовая глубина                          : 8 бит
Тип развёртки                            : Прогрессивная
Метод сжатия                             : С потерями
Бит/(Пиксели*Кадры)                      : 0.201
Размер потока                            : 1,25 Гбайт (86%)
Библиотека кодирования                   : XviD 73

Аудио
Идентификатор                            : 1
Формат                                   : AC-3
Формат/Информация                        : Audio Coding 3
Расширение режима                        : CM (complete main)
Параметр Endianness формата              : Big
Идентификатор кодека                     : 2000
Продолжительность                        : 2 ч. 20 м.
Вид битрейта                             : Постоянный
Битрейт                                  : 192 Кбит/сек
Каналы                                   : 2 канала
Расположение каналов                     : Front: L R
Частота                                  : 48,0 КГц
Частота кадров                           : 31,250 кадров/сек (1536 spf)
Метод сжатия                             : С потерями
Размер потока                            : 193 Мбайт (13%)
Выравнивание                             : Разделение по промежуткам
Продолжительность промежутка             : 42  мс. (1,00 видеокадр)
Время предзагрузки промежутка            : 500  мс.
Скриншоты:

Дополнительные скриншоты:



Все одноименные релизы в Клубе

Смотреть Online

http://moonwalk.cc/video/207b3eab3ca18bde/iframe
Детали торрента:
Название:Никто не узнает / Dare mo shiranai (2004) HDRip
Дата добавления:20 Сен 2016 14:22:26
Размер:1,45 GB
Раздают:
Качают:0
Форум:Азиатское кино (HD*Rip/LQ, DVDRip, SATRip, VHSRip)

All rights reserved © 2015-2018