TORRENTS43.COM

Скачать Валаам. Архипелаг монахов / Valaam, l’archipel des moines (2016) WEB-DL [H.264/1080р-LQ]


Валаам. Архипелаг монахов / Valaam, l’archipel des moines (2016) WEB-DL [H.264/1080р-LQ]
Телекомпания: Россия , Франция / Grand Angle Productions
Жанр: Документальный

Описание:
«Я выбрал для съемки Валаамский монастырь не только из-за широкой известности его в России, но и потому что обнаружил там след отца Серафима, французского монаха, которого надеялся снова увидеть. И ожидание не обмануло меня!»
Автор фильма Франсуа Леспе, известный режиссер-документалист крупнейшего французского телеканала.

Продолжительность: 00:52:17
Качество видео: WEB-DL

Видео: AVC/H.264, 1920*1080 (16:9), ~2210 Кбит/сек
Аудио: Opus, 2 ch, 101 Кбит/сек

Mediainfo:

Код:

General
Unique ID                                : 128652349835191863476696277363010917432 (0x60C98A9265946A276E671A6C69B95438)
Complete name                            : /mnt/Ddisk/Torrent/HD/Валаам. Архипелаг монахов.mkv
Format                                   : Matroska
Format version                           : Version 4 / Version 2
File size                                : 865 MiB
Duration                                 : 52mn 17s
Overall bit rate                         : 2 313 Kbps
Encoded date                             : UTC 2016-09-19 14:57:38
Writing application                      : mkvmerge v9.4.2 ('So High') 64bit
Writing library                          : libebml v1.3.4 + libmatroska v1.4.5

Video
ID                                       : 1
Format                                   : AVC
Format/Info                              : Advanced Video Codec
Format profile                           : High@L4
Format settings, CABAC                   : Yes
Format settings, ReFrames                : 3 frames
Codec ID                                 : V_MPEG4/ISO/AVC
Duration                                 : 52mn 17s
Bit rate                                 : 2 210 Kbps
Width                                    : 1 920 pixels
Height                                   : 1 080 pixels
Display aspect ratio                     : 16:9
Frame rate mode                          : Constant
Frame rate                               : 29.970 (30000/1001) fps
Color space                              : YUV
Chroma subsampling                       : 4:2:0
Bit depth                                : 8 bits
Scan type                                : Progressive
Bits/(Pixel*Frame)                       : 0.036
Stream size                              : 827 MiB (96%)
Default                                  : Yes
Forced                                   : No
Color range                              : Limited
Color primaries                          : BT.709
Transfer characteristics                 : BT.709
Matrix coefficients                      : BT.709

Audio
ID                                       : 2
Format                                   : Opus
Codec ID                                 : A_OPUS
Duration                                 : 52mn 17s
Bit rate                                 : 101 Kbps
Channel(s)                               : 2 channels
Channel positions                        : Front: L R
Sampling rate                            : 48.0 KHz
Frame rate                               : 50.000 fps (960 spf)
Compression mode                         : Lossy
Stream size                              : 37.6 MiB (4%)
Language                                 : Russian
Default                                  : Yes
Forced                                   : No
Скриншоты:


Детали торрента:
Название:Валаам. Архипелаг монахов / Valaam, l’archipel des moines (2016) WEB-DL [H.264/1080р-LQ]
Дата добавления:24 Сен 2016 17:42:32
Размер:865 MB
Раздают:
Качают:0
Форум:Религии и культы

All rights reserved © 2015-2018