TORRENTS43.COM

Скачать Футбол. Чемпионат Италии 2016-2017. 6-й тур. Фиорентина - Милан (25.09.2016) HDTVRip [H.264/720p-LQ] [hand made 50 fps]


Футбол. Чемпионат Италии 2016-2017. 6-й тур. Фиорентина - Милан (25.09.2016) HDTVRip [H.264/720p-LQ] [hand made 50 fps]
Телекомпания: Матч! Футбол 2 HD
Жанр: Спорт
Язык озвучки: Русский (Сергей Минин)

Описание:
25 сентября 2016, воскресенье. 21:45 МСК
6-й тур

Стадион: Артемио Франки (Флоренция, Италия) , вместимость: 47290
Главный судья: Даниэле Орсато (Скио, Италия)
Ассистент: Эленито Ди Либераторе (Италия)
Ассистент: Андреа Марцалони (Италия)
Резервный: Джакомо Паганесси (Италия)

Продолжительность: 01:45:58
Качество видео: HDTVRip
Формат видео: MKV
Автор рипа: toshap

Видео: AVC/H.264, 1280x720, ~4000 Kbps, 50 fps
Аудио: AC3, 2 ch, 128 Kbps

Mediainfo:

Код:

Общее
Уникальный идентификатор                 : 233727367554679694172258260934908548312 (0xAFD640EBE7DE98742092CDED888594D8)
Полное имя                               : M:\СПОРТ\ФУТБОЛ\ИТАЛИЯ\Футбол. Чемпионат Италии 2016-2017. 6-й тур. Фиорентина - Милан HDTVRip 720p.mkv
Формат                                   : Matroska
Версия формата                           : Version 4 / Version 2
Размер файла                             : 3,13 Гбайт
Продолжительность                        : 1 ч. 45 м.
Общий поток                              : 4232 Кбит/сек
Программа кодирования                    : Lavf57.20.100
Библиотека кодирования                   : Lavf57.20.100 / Lavf57.20.100

Видео
Идентификатор                            : 1
Формат                                   : AVC
Формат/Информация                        : Advanced Video Codec
Профиль формата                          : High@L3.2
Параметр CABAC формата                   : Да
Параметр ReFrames формата                : 4 кадра
Идентификатор кодека                     : V_MPEG4/ISO/AVC
Продолжительность                        : 1 ч. 45 м.
Битрейт                                  : 4020 Кбит/сек
Ширина                                   : 1280 пикселей
Высота                                   : 720 пикселей
Соотношение сторон                       : 16:9
Режим частоты кадров                     : Постоянный
Частота кадров                           : 50,000 кадров/сек
Цветовое пространство                    : YUV
Субдискретизация насыщенности            : 4:2:0
Битовая глубина                          : 8 бит
Тип развёртки                            : Прогрессивная
Бит/(Пиксели*Кадры)                      : 0.087
Размер потока                            : 2,98 Гбайт (95%)
Библиотека кодирования                   : x264 core 148 r2694 3b70645
Настройки программы                      : cabac=1 / ref=3 / deblock=1:0:0 / analyse=0x3:0x113 / me=hex / subme=7 / psy=1 / psy_rd=1.00:0.00 / mixed_ref=1 / me_range=16 / chroma_me=1 / trellis=1 / 8x8dct=1 / cqm=0 / deadzone=21,11 / fast_pskip=1 / chroma_qp_offset=-2 / threads=12 / lookahead_threads=2 / sliced_threads=0 / nr=0 / decimate=1 / interlaced=0 / bluray_compat=0 / constrained_intra=0 / bframes=3 / b_pyramid=2 / b_adapt=1 / b_bias=0 / direct=1 / weightb=1 / open_gop=0 / weightp=2 / keyint=250 / keyint_min=25 / scenecut=40 / intra_refresh=0 / rc_lookahead=40 / rc=crf / mbtree=1 / crf=21.5 / qcomp=0.60 / qpmin=0 / qpmax=69 / qpstep=4 / ip_ratio=1.40 / aq=1:1.00
Default                                  : Да
Forced                                   : Нет
DURATION                                 : 01:45:58.194000000

Аудио
Идентификатор                            : 2
Формат                                   : AC-3
Формат/Информация                        : Audio Coding 3
Расширение режима                        : CM (complete main)
Параметр Endianness формата              : Big
Идентификатор кодека                     : A_AC3
Продолжительность                        : 1 ч. 45 м.
Вид битрейта                             : Постоянный
Битрейт                                  : 128 Кбит/сек
Каналы                                   : 2 канала
Расположение каналов                     : Front: L R
Частота                                  : 48,0 КГц
Частота кадров                           : 31,250 кадров/сек (1536 spf)
Битовая глубина                          : 32 бит
Метод сжатия                             : С потерями
Задержка видео                           : -20 мс.
Размер потока                            : 97,0 Мбайт (3%)
Библиотека кодирования                   : Lavc57.48.102 ac3
Язык                                     : Russian
Default                                  : Да
Forced                                   : Нет
DURATION                                 : 01:45:57.245000000
Скриншоты:


Детали торрента:
Название:Футбол. Чемпионат Италии 2016-2017. 6-й тур. Фиорентина - Милан (25.09.2016) HDTVRip [H.264/720p-LQ] [hand made 50 fps]
Дата добавления:26 Сен 2016 08:33:17
Размер:3,13 GB
Раздают:
Качают:0
Форум:Архив Документалистики и TV

All rights reserved © 2015-2018